<?xml version="1.0" encoding="utf-8"?>
<!-- Generator: Adobe Illustrator 14.0.0, SVG Export Plug-In  -->
<!DOCTYPE svg PUBLIC "-//W3C//DTD SVG 1.1//EN" "http://www.w3.org/Graphics/SVG/1.1/DTD/svg11.dtd" [
	<!ENTITY ns_flows "http://ns.adobe.com/Flows/1.0/">
]>
<svg version="1.1"
	 xmlns="http://www.w3.org/2000/svg" xmlns:xlink="http://www.w3.org/1999/xlink" xmlns:a="http://ns.adobe.com/AdobeSVGViewerExtensions/3.0/"
	 x="0px" y="0px" width="127px" height="127px" viewBox="-0.031 44.021 127 127" enable-background="new -0.031 44.021 127 127"
	 xml:space="preserve">
<font horiz-adv-x="1000">
<!-- Copyright 1992, 1994, 1997, 2000, 2004 Adobe Systems Incorporated. All rights reserved. Protected by U.S. Patents D454,582. Myriad is either a registered trademark or a trademark of Adobe Systems Incorporated in the United States and/or other countries. -->
<font-face font-family="BBGK-Bold" units-per-em="1000" underline-position="-100" underline-thickness="50"/>
<missing-glyph horiz-adv-x="500" d="M0,0l500,0l0,700l-500,0M250,395l-170,255l340,0M280,350l170,255l0,-510M80,50l170,255l170,-255M50,605l170,-255l-170,-255z"/>
<glyph unicode="A" horiz-adv-x="612" d="M424,212l72,-212l93,0l-230,674l-104,0l-230,-674l90,0l70,212M203,280l66,195C283,516 293,558 303,597l2,0C315,558 325,518 340,474l67,-194z"/>
<glyph unicode="&#xC6;" horiz-adv-x="788" d="M89,0l108,237l207,0l30,-237l321,0l1,73l-247,0l-30,241l240,0l0,72l-251,0l-26,215l286,0l1,73l-422,0l-308,-674M226,308l87,197C328,541 344,579 356,611l4,0C362,577 368,533 372,502l22,-194z"/>
<glyph unicode="&#x1FC;" horiz-adv-x="788" d="M89,0l108,237l207,0l30,-237l321,0l1,73l-247,0l-30,241l240,0l0,72l-251,0l-26,215l286,0l1,73l-422,0l-308,-674M226,308l87,197C328,541 344,579 356,611l4,0C362,577 368,533 372,502l22,-194M488,827l-92,-117l71,0l128,117z"/>
<glyph unicode="&#xC1;" horiz-adv-x="612" d="M424,212l72,-212l93,0l-230,674l-104,0l-230,-674l90,0l70,212M203,280l66,195C283,516 293,558 303,597l2,0C315,558 325,518 340,474l67,-194M348,827l-93,-117l71,0l128,117z"/>
<glyph unicode="&#x102;" horiz-adv-x="612" d="M424,212l72,-212l93,0l-230,674l-104,0l-230,-674l90,0l70,212M203,280l66,195C283,516 293,558 303,597l2,0C315,558 325,518 340,474l67,-194M181,817C183,757 219,711 304,711C390,711 427,758 429,817l-51,0C373,791 354,768 305,768C256,768 238,794 233,817z"/>
<glyph unicode="&#xC2;" horiz-adv-x="612" d="M424,212l72,-212l93,0l-230,674l-104,0l-230,-674l90,0l70,212M203,280l66,195C283,516 293,558 303,597l2,0C315,558 325,518 340,474l67,-194M276,824l-102,-114l71,0l64,69l2,0l63,-69l74,0l-105,114z"/>
<glyph unicode="&#xC4;" horiz-adv-x="612" d="M424,212l72,-212l93,0l-230,674l-104,0l-230,-674l90,0l70,212M203,280l66,195C283,516 293,558 303,597l2,0C315,558 325,518 340,474l67,-194M216,719C246,719 265,742 265,770C265,798 245,820 217,820C189,820 168,797 168,770C168,742 188,719 216,719M402,719C433,719 452,742 452,770C452,798 432,820 404,820C375,820 354,797 354,770C354,742 374,719 402,719z"/>
<glyph unicode="&#xC0;" horiz-adv-x="612" d="M424,212l72,-212l93,0l-230,674l-104,0l-230,-674l90,0l70,212M203,280l66,195C283,516 293,558 303,597l2,0C315,558 325,518 340,474l67,-194M161,827l128,-116l71,0l-93,116z"/>
<glyph unicode="&#x391;" horiz-adv-x="612" d="M424,212l72,-212l93,0l-230,674l-104,0l-230,-674l90,0l70,212M203,280l66,195C283,516 293,558 303,597l2,0C315,558 325,518 340,474l67,-194z"/>
<glyph unicode="&#x386;" horiz-adv-x="615" d="M427,212l73,-212l93,0l-230,674l-105,0l-229,-674l90,0l70,212M206,280l67,195C286,516 296,558 306,597l2,0C318,558 329,518 343,474l67,-194M70,674l-7,-155l52,0l34,155z"/>
<glyph unicode="&#x100;" horiz-adv-x="612" d="M424,212l72,-212l93,0l-230,674l-104,0l-230,-674l90,0l70,212M203,280l66,195C283,516 293,558 303,597l2,0C315,558 325,518 340,474l67,-194M185,788l0,-55l240,0l0,55z"/>
<glyph unicode="&#x104;" horiz-adv-x="612" d="M359,674l-104,0l-230,-674l91,0l69,212l239,0l71,-208C472,-23 436,-70 436,-119C436,-176 474,-206 530,-206C554,-206 589,-198 610,-182l-14,45C584,-143 568,-147 551,-147C522,-147 500,-128 500,-95C500,-59 537,-18 553,-2l37,2M203,280l66,195C283,516 293,558 303,597l2,0C315,558 325,518 340,474l67,-194z"/>
<glyph unicode="&#xC5;" horiz-adv-x="612" d="M424,212l72,-212l93,0l-230,674l-104,0l-230,-674l90,0l70,212M203,280l66,195C283,516 293,558 303,597l2,0C315,558 325,518 340,474l67,-194M309,878C246,878 208,837 208,787C208,738 248,699 308,699C366,699 407,737 407,787C407,838 369,878 309,878M306,842C336,842 355,818 355,789C355,759 336,736 307,736C278,736 259,761 259,787C259,816 276,842 306,842z"/>
<glyph unicode="&#x1FA;" horiz-adv-x="612" d="M312,692C367,692 402,725 402,769C402,813 369,848 313,848C255,848 221,812 221,769C221,726 255,692 312,692M311,729C285,729 267,747 267,769C267,792 282,812 310,812C338,812 356,793 356,770C356,745 338,729 311,729M366,952l-107,-86l78,0l143,86M425,212l72,-212l93,0l-230,674l-106,0l-229,-674l90,0l70,212M203,280l66,195C283,516 293,558 303,597l2,0C315,558 325,518 340,474l67,-194z"/>
<glyph unicode="&#xC3;" horiz-adv-x="612" d="M424,212l72,-212l93,0l-230,674l-104,0l-230,-674l90,0l70,212M203,280l66,195C283,516 293,558 303,597l2,0C315,558 325,518 340,474l67,-194M232,715C235,742 242,759 258,759C273,759 286,750 306,740C327,729 346,721 367,721C413,721 435,755 434,818l-46,0C385,786 376,779 361,779C345,779 329,788 313,797C292,808 275,817 253,817C210,817 184,776 185,715z"/>
<glyph unicode="B" horiz-adv-x="542" d="M76,2C105,-2 151,-6 211,-6C321,-6 397,14 443,57C478,89 501,134 501,192C501,292 426,345 362,360l0,3C432,388 476,445 476,511C476,564 454,604 419,630C378,664 322,679 235,679C175,679 114,673 76,664M163,606C177,609 200,612 240,612C328,612 387,580 387,502C387,437 333,388 242,388l-79,0M163,323l72,0C330,323 409,284 409,193C409,95 326,62 236,62C205,62 181,63 163,66z"/>
<glyph unicode="&#x392;" horiz-adv-x="542" d="M76,2C105,-2 151,-6 211,-6C321,-6 397,14 443,57C478,89 501,134 501,192C501,292 426,345 362,360l0,3C432,388 476,445 476,511C476,564 454,604 419,630C378,664 322,679 235,679C175,679 114,673 76,664M163,606C177,609 200,612 240,612C328,612 387,580 387,502C387,437 333,388 242,388l-79,0M163,323l72,0C330,323 409,284 409,193C409,95 326,62 236,62C205,62 181,63 163,66z"/>
<glyph unicode="C" horiz-adv-x="580" d="M529,91C494,74 440,63 386,63C223,63 128,168 128,334C128,511 233,612 391,612C447,612 494,600 526,584l22,71C525,667 471,685 388,685C179,685 36,543 36,331C36,109 178,-11 368,-11C450,-11 515,5 546,21z"/>
<glyph unicode="&#x106;" horiz-adv-x="580" d="M529,91C494,74 440,63 386,63C223,63 128,168 128,334C128,511 233,612 391,612C447,612 494,600 526,584l22,71C525,667 471,685 388,685C179,685 36,543 36,331C36,109 178,-11 368,-11C450,-11 515,5 546,21M400,829l-93,-117l71,0l128,117z"/>
<glyph unicode="&#x10C;" horiz-adv-x="580" d="M529,91C494,74 440,63 386,63C223,63 128,168 128,334C128,511 233,612 391,612C447,612 494,600 526,584l22,71C525,667 471,685 388,685C179,685 36,543 36,331C36,109 178,-11 368,-11C450,-11 515,5 546,21M387,713l102,114l-71,0l-63,-69l-2,0l-64,69l-74,0l105,-114z"/>
<glyph unicode="&#xC7;" horiz-adv-x="585" d="M530,91C494,74 440,63 387,63C223,63 128,168 128,334C128,511 233,612 391,612C447,612 494,600 527,584l21,71C526,667 472,685 389,685C179,685 36,543 36,331C36,128 154,12 319,-7l-42,-76C324,-89 355,-100 355,-126C355,-148 335,-157 312,-157C292,-157 272,-152 257,-143l-14,-45C261,-198 288,-205 314,-205C366,-205 417,-183 417,-124C417,-84 385,-57 347,-50l25,40C455,-9 517,6 547,22z"/>
<glyph unicode="&#x108;" horiz-adv-x="580" d="M529,91C494,74 440,63 386,63C223,63 128,168 128,334C128,511 233,612 391,612C447,612 494,600 526,584l22,71C525,667 471,685 388,685C179,685 36,543 36,331C36,109 178,-11 368,-11C450,-11 515,5 546,21M314,828l-102,-114l71,0l64,69l2,0l63,-69l74,0l-105,114z"/>
<glyph unicode="&#x10A;" horiz-adv-x="580" d="M529,91C494,74 440,63 386,63C223,63 128,168 128,334C128,511 233,612 391,612C447,612 494,600 526,584l22,71C525,667 471,685 388,685C179,685 36,543 36,331C36,109 178,-11 368,-11C450,-11 515,5 546,21M348,719C376,719 397,743 397,770C397,796 376,820 349,820C321,820 299,796 299,770C299,743 320,719 348,719z"/>
<glyph unicode="&#x3A7;" horiz-adv-x="571" d="M546,0l-210,346l205,328l-101,0l-91,-158C324,473 307,442 288,402l-3,0C267,438 248,472 223,516l-89,158l-101,0l198,-333l-206,-341l100,0l81,148C241,207 260,243 279,282l2,0C302,243 323,206 358,149l87,-149z"/>
<glyph unicode="D" horiz-adv-x="666" d="M76,2C120,-3 171,-6 234,-6C365,-6 469,28 533,91C595,153 630,243 630,353C630,462 595,540 534,595C475,649 386,679 261,679C192,679 129,673 76,664M163,601C186,606 220,610 265,610C449,610 539,509 538,350C538,168 438,64 251,64C217,64 185,65 163,68z"/>
<glyph unicode="&#x10E;" horiz-adv-x="666" d="M76,2C120,-3 171,-6 234,-6C365,-6 469,28 533,91C595,153 630,243 630,353C630,462 595,540 534,595C475,649 386,679 261,679C192,679 129,673 76,664M163,601C186,606 220,610 265,610C449,610 539,509 538,350C538,168 438,64 251,64C217,64 185,65 163,68M342,712l102,114l-71,0l-63,-69l-2,0l-64,69l-74,0l105,-114z"/>
<glyph unicode="&#x110;" horiz-adv-x="671" d="M-1,307l82,0l0,-307C125,-4 176,-7 239,-7C369,-7 473,27 537,90C599,153 634,242 634,353C634,464 599,544 538,598C480,653 390,682 266,682C197,682 134,676 81,667l0,-290l-82,0M348,377l-180,0l0,227C191,609 225,613 270,613C453,613 543,514 542,352C542,166 442,63 255,63C222,63 190,64 168,67l0,240l180,0z"/>
<glyph unicode="&#x2206;" horiz-adv-x="569" d="M544,0l0,50l-209,606l-98,0l-211,-607l0,-49M452,72l-338,0l124,361C253,481 271,543 281,578l3,0C296,534 316,468 332,420z"/>
<glyph unicode="E" horiz-adv-x="492" d="M424,388l-261,0l0,213l277,0l0,73l-365,0l0,-674l380,0l0,73l-292,0l0,243l261,0z"/>
<glyph unicode="&#xC9;" horiz-adv-x="492" d="M424,388l-261,0l0,213l277,0l0,73l-365,0l0,-674l380,0l0,73l-292,0l0,243l261,0M302,827l-93,-117l71,0l128,117z"/>
<glyph unicode="&#x114;" horiz-adv-x="492" d="M424,388l-261,0l0,213l277,0l0,73l-365,0l0,-674l380,0l0,73l-292,0l0,243l261,0M130,825C132,765 168,719 253,719C339,719 376,766 378,825l-51,0C322,799 303,776 254,776C205,776 187,802 182,825z"/>
<glyph unicode="&#x11A;" horiz-adv-x="492" d="M424,388l-261,0l0,213l277,0l0,73l-365,0l0,-674l380,0l0,73l-292,0l0,243l261,0M291,710l102,114l-71,0l-63,-69l-2,0l-64,69l-74,0l105,-114z"/>
<glyph unicode="&#xCA;" horiz-adv-x="492" d="M424,388l-261,0l0,213l277,0l0,73l-365,0l0,-674l380,0l0,73l-292,0l0,243l261,0M223,824l-102,-114l71,0l64,69l2,0l63,-69l74,0l-105,114z"/>
<glyph unicode="&#xCB;" horiz-adv-x="492" d="M425,388l-262,0l0,213l277,0l0,73l-365,0l0,-674l381,0l0,73l-293,0l0,243l262,0M162,721C192,721 211,744 211,772C211,800 191,822 163,822C135,822 114,799 114,772C114,744 134,721 162,721M347,721C378,721 397,744 397,772C397,800 377,822 349,822C320,822 299,799 299,772C299,744 319,721 347,721z"/>
<glyph unicode="&#x116;" horiz-adv-x="492" d="M424,388l-261,0l0,213l277,0l0,73l-365,0l0,-674l380,0l0,73l-292,0l0,243l261,0M250,721C278,721 299,745 299,772C299,798 278,822 251,822C223,822 201,798 201,772C201,745 222,721 250,721z"/>
<glyph unicode="&#xC8;" horiz-adv-x="492" d="M424,388l-261,0l0,213l277,0l0,73l-365,0l0,-674l380,0l0,73l-292,0l0,243l261,0M119,827l128,-116l71,0l-93,116z"/>
<glyph unicode="&#x112;" horiz-adv-x="492" d="M424,388l-261,0l0,213l277,0l0,73l-365,0l0,-674l380,0l0,73l-292,0l0,243l261,0M139,788l0,-55l240,0l0,55z"/>
<glyph unicode="&#x14A;" horiz-adv-x="658" d="M158,0l0,288C158,400 157,481 152,566l3,1C188,494 233,417 280,342l218,-348C491,-77 451,-115 371,-131l18,-68C516,-180 582,-104 582,38l0,636l-82,0l0,-282C500,287 502,205 510,115l-3,-1C476,183 436,254 387,333l-215,341l-96,0l0,-674z"/>
<glyph unicode="&#x118;" horiz-adv-x="492" d="M446,-138C431,-144 417,-146 402,-146C376,-146 357,-132 357,-106C357,-69 398,-27 439,-1C445,-1 450,0 455,0l0,73l-292,0l0,243l261,0l0,72l-261,0l0,213l277,0l0,73l-365,0l0,-674l293,0C332,-24 287,-71 287,-125C287,-177 323,-206 379,-206C409,-206 437,-199 460,-185z"/>
<glyph unicode="&#x395;" horiz-adv-x="492" d="M424,388l-261,0l0,213l277,0l0,73l-365,0l0,-674l380,0l0,73l-292,0l0,243l261,0z"/>
<glyph unicode="&#x388;" horiz-adv-x="561" d="M494,388l-261,0l0,213l277,0l0,73l-365,0l0,-674l380,0l0,73l-292,0l0,243l261,0M7,674l-7,-155l52,0l35,155z"/>
<glyph unicode="&#x397;" horiz-adv-x="652" d="M75,674l0,-674l88,0l0,316l326,0l0,-316l88,0l0,674l-88,0l0,-282l-326,0l0,282z"/>
<glyph unicode="&#x389;" horiz-adv-x="722" d="M145,674l0,-674l87,0l0,316l326,0l0,-316l88,0l0,674l-88,0l0,-282l-326,0l0,282M7,674l-7,-155l52,0l34,155z"/>
<glyph unicode="&#xD0;" horiz-adv-x="671" d="M-1,307l82,0l0,-307C125,-4 176,-7 239,-7C369,-7 473,27 537,90C599,153 634,242 634,353C634,464 599,544 538,598C480,653 390,682 266,682C197,682 134,676 81,667l0,-290l-82,0M348,377l-180,0l0,227C191,609 225,613 270,613C453,613 543,514 542,352C542,166 442,63 255,63C222,63 190,64 168,67l0,240l180,0z"/>
<glyph unicode="&#x20AC;" horiz-adv-x="513" d="M479,94C456,80 410,61 357,61C303,61 253,79 216,119C188,149 169,192 161,250l283,0l0,50l-290,0C154,306 154,311 154,317C154,332 154,346 156,359l288,0l0,50l-279,0C175,462 195,507 224,537C258,572 303,591 357,591C402,591 443,578 469,563l20,66C461,644 415,661 355,661C274,661 208,631 158,578C117,537 88,479 76,409l-66,0l0,-50l59,0C68,345 67,330 67,315C67,310 67,305 67,300l-57,0l0,-50l62,0C81,178 106,120 144,78C193,20 266,-11 347,-11C412,-11 465,9 496,30z"/>
<glyph unicode="&#xF64E;" horiz-adv-x="530" d="M466,83C443,70 402,57 353,57C303,57 263,71 227,106C209,123 195,149 188,178l249,0l0,49l-259,0C177,239 177,249 177,257C177,264 178,275 179,286l258,0l0,48l-248,0C194,365 210,392 230,412C265,446 308,460 353,460C401,460 434,448 457,436l20,62C451,511 413,526 354,526C285,526 216,502 165,451C135,421 113,380 102,334l-64,0l0,-48l56,0C93,273 92,261 92,251C92,245 93,238 93,227l-55,0l0,-49l63,0C110,131 132,88 162,58C210,11 275,-11 341,-11C402,-11 455,7 478,22z"/>
<glyph unicode="F" horiz-adv-x="487" d="M75,0l88,0l0,305l254,0l0,72l-254,0l0,224l275,0l0,73l-363,0z"/>
<glyph unicode="G" horiz-adv-x="646" d="M590,354l-222,0l0,-70l136,0l0,-201C484,73 445,65 388,65C230,65 128,166 128,337C128,506 235,608 399,608C467,608 512,596 548,579l22,71C541,664 479,681 401,681C175,681 36,534 36,333C36,228 72,138 130,82C196,19 280,-7 382,-7C473,-7 551,15 590,30z"/>
<glyph unicode="&#xE000;" horiz-adv-x="646" d="M590,354l-222,0l0,-70l136,0l0,-201C484,73 445,65 388,65C230,65 128,166 128,337C128,506 235,608 399,608C467,608 512,596 548,579l22,71C541,664 479,681 401,681C175,681 36,534 36,333C36,228 72,138 130,82C196,19 280,-7 382,-7C473,-7 551,15 590,30M291,715C294,742 301,759 317,759C332,759 345,750 364,740C387,729 405,721 426,721C472,721 494,755 493,818l-46,0C444,786 435,779 420,779C404,779 388,788 372,797C350,808 334,817 312,817C269,817 243,776 244,715z"/>
<glyph unicode="&#x393;" horiz-adv-x="451" d="M75,674l0,-674l88,0l0,601l274,0l0,73z"/>
<glyph unicode="&#x11E;" horiz-adv-x="646" d="M590,354l-222,0l0,-70l136,0l0,-201C484,73 445,65 388,65C230,65 128,166 128,337C128,506 235,608 399,608C467,608 512,596 548,579l22,71C541,664 479,681 401,681C175,681 36,534 36,333C36,228 72,138 130,82C196,19 280,-7 382,-7C473,-7 551,15 590,30M231,827C233,767 269,721 353,721C439,721 476,768 478,827l-51,0C422,801 403,778 355,778C306,778 288,804 283,827z"/>
<glyph unicode="&#x11C;" horiz-adv-x="646" d="M590,354l-222,0l0,-70l136,0l0,-201C484,73 445,65 388,65C230,65 128,166 128,337C128,506 235,608 399,608C467,608 512,596 548,579l22,71C541,664 479,681 401,681C175,681 36,534 36,333C36,228 72,138 130,82C196,19 280,-7 382,-7C473,-7 551,15 590,30M326,827l-102,-114l71,0l64,69l2,0l63,-69l74,0l-105,114z"/>
<glyph unicode="&#x122;" horiz-adv-x="646" d="M590,354l-222,0l0,-70l136,0l0,-201C484,73 445,65 388,65C230,65 128,166 128,337C128,506 235,608 399,608C467,608 512,596 548,579l22,71C541,664 479,681 401,681C175,681 36,534 36,333C36,228 72,138 130,82C196,19 280,-7 382,-7C473,-7 551,15 590,30M298,-222C360,-218 427,-188 427,-115C427,-82 407,-54 387,-41l-65,-14C340,-70 356,-92 356,-116C356,-155 320,-175 281,-181z"/>
<glyph unicode="&#x120;" horiz-adv-x="646" d="M590,354l-222,0l0,-70l136,0l0,-201C484,73 445,65 388,65C230,65 128,166 128,337C128,506 235,608 399,608C467,608 512,596 548,579l22,71C541,664 479,681 401,681C175,681 36,534 36,333C36,228 72,138 130,82C196,19 280,-7 382,-7C473,-7 551,15 590,30M361,719C389,719 410,743 410,770C410,796 389,820 362,820C334,820 312,796 312,770C312,743 333,719 361,719z"/>
<glyph unicode="H" horiz-adv-x="652" d="M75,674l0,-674l88,0l0,316l326,0l0,-316l88,0l0,674l-88,0l0,-282l-326,0l0,282z"/>
<glyph unicode="&#x126;" horiz-adv-x="657" d="M636,479l0,58l-57,0l0,137l-88,0l0,-137l-325,0l0,137l-88,0l0,-137l-57,0l0,-58l57,0l0,-479l88,0l0,301l325,0l0,-301l88,0l0,479M491,377l-325,0l0,102l325,0z"/>
<glyph unicode="&#x124;" horiz-adv-x="652" d="M75,674l0,-674l88,0l0,316l326,0l0,-316l88,0l0,674l-88,0l0,-282l-326,0l0,282M292,824l-102,-114l71,0l64,69l2,0l63,-69l74,0l-105,114z"/>
<glyph unicode="I" horiz-adv-x="239" d="M75,674l0,-674l88,0l0,674z"/>
<glyph unicode="&#x132;" horiz-adv-x="609" d="M75,674l0,-674l88,0l0,674M453,231C453,98 408,63 330,63C300,63 274,69 256,76l-13,-71C265,-4 304,-11 337,-11C453,-11 541,44 541,223l0,451l-88,0z"/>
<glyph unicode="&#xCD;" horiz-adv-x="239" d="M75,674l0,-674l88,0l0,674M160,827l-93,-117l71,0l128,117z"/>
<glyph unicode="&#x12C;" horiz-adv-x="239" d="M75,674l0,-674l88,0l0,674M-4,823C-2,763 34,717 118,717C204,717 241,764 243,823l-51,0C187,797 168,774 120,774C71,774 53,800 48,823z"/>
<glyph unicode="&#xCE;" horiz-adv-x="239" d="M75,674l0,-674l88,0l0,674M85,824l-102,-114l71,0l64,69l2,0l63,-69l74,0l-105,114z"/>
<glyph unicode="&#xCF;" horiz-adv-x="239" d="M75,674l0,-674l88,0l0,674M27,721C57,721 76,744 76,772C76,800 56,822 28,822C0,822 -21,799 -21,772C-21,744 -1,721 27,721M212,721C243,721 262,744 262,772C262,800 242,822 214,822C185,822 164,799 164,772C164,744 184,721 212,721z"/>
<glyph unicode="&#x130;" horiz-adv-x="239" d="M75,674l0,-674l88,0l0,674M120,721C148,721 169,745 169,772C169,798 148,822 121,822C93,822 71,798 71,772C71,745 92,721 120,721z"/>
<glyph unicode="&#xCC;" horiz-adv-x="239" d="M75,674l0,-674l88,0l0,674M-25,827l128,-116l71,0l-93,116z"/>
<glyph unicode="&#x12A;" horiz-adv-x="239" d="M75,674l0,-674l88,0l0,674M0,788l0,-55l240,0l0,55z"/>
<glyph unicode="&#x12E;" horiz-adv-x="239" d="M163,674l-88,0l0,-674C58,-27 28,-74 28,-123C28,-180 66,-210 121,-210C146,-210 181,-202 202,-187l-14,46C177,-146 162,-150 143,-150C114,-150 92,-132 92,-98C92,-62 118,-21 133,0l30,0z"/>
<glyph unicode="&#x399;" horiz-adv-x="239" d="M75,674l0,-674l88,0l0,674z"/>
<glyph unicode="&#x3AA;" horiz-adv-x="239" d="M27,711C57,711 76,734 76,761C76,789 55,811 28,811C0,811 -22,788 -22,761C-22,734 -2,711 27,711M210,711C241,711 260,734 260,761C260,789 239,811 212,811C183,811 162,788 162,761C162,734 182,711 210,711M75,674l0,-674l88,0l0,674z"/>
<glyph unicode="&#x38A;" horiz-adv-x="309" d="M145,674l0,-674l88,0l0,674M7,674l-7,-155l52,0l35,155z"/>
<glyph unicode="&#x128;" horiz-adv-x="239" d="M75,674l0,-674l88,0l0,674M43,715C46,742 53,759 69,759C84,759 97,750 116,740C138,729 156,721 177,721C223,721 245,755 244,818l-46,0C195,786 186,779 171,779C155,779 139,788 123,797C102,808 86,817 64,817C21,817 -5,776 -4,715z"/>
<glyph unicode="J" horiz-adv-x="370" d="M213,230C213,98 168,63 90,63C60,63 34,69 16,76l-12,-71C25,-4 64,-11 97,-11C213,-11 301,44 301,223l0,451l-88,0z"/>
<glyph unicode="&#x134;" horiz-adv-x="370" d="M213,230C213,98 168,63 90,63C60,63 34,69 16,76l-12,-71C25,-4 64,-11 97,-11C213,-11 301,44 301,223l0,451l-88,0M219,824l-102,-114l71,0l64,69l2,0l63,-69l74,0l-105,114z"/>
<glyph unicode="K" horiz-adv-x="542" d="M76,0l87,0l0,257l65,74l221,-331l103,0l-263,388l244,286l-108,0l-206,-253C202,399 184,375 166,349l-3,0l0,325l-87,0z"/>
<glyph unicode="&#x39A;" horiz-adv-x="542" d="M76,0l87,0l0,257l65,74l221,-331l103,0l-263,388l244,286l-108,0l-206,-253C202,399 184,375 166,349l-3,0l0,325l-87,0z"/>
<glyph unicode="&#x136;" horiz-adv-x="542" d="M76,0l87,0l0,257l65,74l221,-331l103,0l-263,388l244,286l-108,0l-206,-253C202,399 184,375 166,349l-3,0l0,325l-87,0M215,-220C277,-216 344,-186 344,-113C344,-80 324,-52 304,-39l-65,-14C257,-68 273,-90 273,-114C273,-153 237,-173 198,-179z"/>
<glyph unicode="L" horiz-adv-x="472" d="M75,0l376,0l0,73l-288,0l0,601l-88,0z"/>
<glyph unicode="&#x139;" horiz-adv-x="472" d="M75,0l376,0l0,73l-288,0l0,601l-88,0M179,827l-93,-117l71,0l128,117z"/>
<glyph unicode="&#x39B;" horiz-adv-x="609" d="M590,0l-232,674l-103,0l-230,-674l91,0l153,465C282,509 293,550 302,592l3,0C315,551 325,511 340,464l156,-464z"/>
<glyph unicode="&#x13D;" horiz-adv-x="472" d="M75,0l376,0l0,73l-288,0l0,601l-88,0M260,504C322,508 389,538 389,611C389,644 369,672 349,685l-65,-14C302,656 318,634 318,610C318,571 282,551 243,545z"/>
<glyph unicode="&#x13B;" horiz-adv-x="472" d="M75,0l376,0l0,73l-288,0l0,601l-88,0M187,-222C249,-218 316,-188 316,-115C316,-82 296,-54 276,-41l-65,-14C229,-70 245,-92 245,-116C245,-155 209,-175 170,-181z"/>
<glyph unicode="&#x13F;" horiz-adv-x="472" d="M75,0l376,0l0,73l-288,0l0,601l-88,0M340,321C368,321 389,345 389,372C389,398 368,422 341,422C313,422 291,398 291,372C291,345 312,321 340,321z"/>
<glyph unicode="&#x141;" horiz-adv-x="476" d="M455,0l0,73l-288,0l0,255l134,97l0,68l-134,-97l0,278l-88,0l0,-338l-84,-61l0,-67l84,61l0,-269z"/>
<glyph unicode="M" horiz-adv-x="804" d="M660,0l86,0l-42,674l-111,0l-120,-326C443,263 419,189 401,121l-2,0C381,191 359,265 331,348l-115,326l-111,0l-47,-674l83,0l18,289C165,391 170,503 172,587l2,0C193,507 219,421 251,325l110,-321l66,0l119,327C580,424 607,509 631,587l2,0C633,504 639,390 644,296z"/>
<glyph unicode="&#xE001;" horiz-adv-x="804" d="M660,0l86,0l-42,674l-111,0l-120,-326C443,263 419,189 401,121l-2,0C381,191 359,265 331,348l-115,326l-111,0l-47,-674l83,0l18,289C165,391 170,503 172,587l2,0C193,507 219,421 251,325l110,-321l66,0l119,327C580,424 607,509 631,587l2,0C633,504 639,390 644,296M367,824l-102,-114l71,0l64,69l2,0l63,-69l74,0l-105,114z"/>
<glyph unicode="&#x39C;" horiz-adv-x="804" d="M660,0l86,0l-42,674l-111,0l-120,-326C443,263 419,189 401,121l-2,0C381,191 359,265 331,348l-115,326l-111,0l-47,-674l83,0l18,289C165,391 170,503 172,587l2,0C193,507 219,421 251,325l110,-321l66,0l119,327C580,424 607,509 631,587l2,0C633,504 639,390 644,296z"/>
<glyph unicode="N" horiz-adv-x="658" d="M158,0l0,288C158,400 157,481 152,566l3,1C188,494 233,417 280,342l214,-342l88,0l0,674l-82,0l0,-282C500,287 502,205 510,115l-3,-1C476,183 436,254 387,333l-215,341l-96,0l0,-674z"/>
<glyph unicode="&#xE002;" horiz-adv-x="658" d="M158,0l0,288C158,400 157,481 152,566l3,1C188,494 233,417 280,342l214,-342l88,0l0,674l-82,0l0,-282C500,287 502,205 510,115l-3,-1C476,183 436,254 387,333l-215,341l-96,0l0,-674M295,824l-103,-114l71,0l64,69l2,0l63,-69l74,0l-105,114z"/>
<glyph unicode="&#x143;" horiz-adv-x="658" d="M158,0l0,288C158,400 157,481 152,566l3,1C188,494 233,417 280,342l214,-342l88,0l0,674l-82,0l0,-282C500,287 502,205 510,115l-3,-1C476,183 436,254 387,333l-215,341l-96,0l0,-674M370,827l-92,-117l71,0l128,117z"/>
<glyph unicode="&#x147;" horiz-adv-x="658" d="M158,0l0,288C158,400 157,481 152,566l3,1C188,494 233,417 280,342l214,-342l88,0l0,674l-82,0l0,-282C500,287 502,205 510,115l-3,-1C476,183 436,254 387,333l-215,341l-96,0l0,-674M364,705l103,114l-71,0l-63,-69l-2,0l-64,69l-74,0l105,-114z"/>
<glyph unicode="&#x145;" horiz-adv-x="658" d="M158,0l0,288C158,400 157,481 152,566l3,1C188,494 233,417 280,342l214,-342l88,0l0,674l-82,0l0,-282C500,287 502,205 510,115l-3,-1C476,183 436,254 387,333l-215,341l-96,0l0,-674M270,-221C332,-217 399,-187 399,-114C399,-81 379,-53 359,-40l-65,-14C312,-69 328,-91 328,-115C328,-154 292,-174 253,-180z"/>
<glyph unicode="&#xD1;" horiz-adv-x="658" d="M158,0l0,288C158,400 157,481 152,566l3,1C188,494 233,417 280,342l214,-342l88,0l0,674l-82,0l0,-282C500,287 502,205 510,115l-3,-1C476,183 436,254 387,333l-215,341l-96,0l0,-674M257,715C260,742 267,759 283,759C297,759 311,750 330,740C352,729 370,721 391,721C437,721 459,755 458,818l-46,0C409,786 400,779 385,779C369,779 353,788 337,797C316,808 300,817 278,817C235,817 209,776 210,715z"/>
<glyph unicode="&#x39D;" horiz-adv-x="658" d="M158,0l0,288C158,400 157,481 152,566l3,1C188,494 233,417 280,342l214,-342l88,0l0,674l-82,0l0,-282C500,287 502,205 510,115l-3,-1C476,183 436,254 387,333l-215,341l-96,0l0,-674z"/>
<glyph unicode="O" horiz-adv-x="689" d="M348,686C168,686 36,546 36,332C36,128 160,-11 339,-11C511,-11 652,113 652,344C652,545 533,686 348,686M345,615C490,615 560,475 560,340C560,187 482,60 344,60C206,60 128,189 128,334C128,481 200,615 345,615z"/>
<glyph unicode="&#x152;" horiz-adv-x="894" d="M857,73l-292,0l0,242l261,0l0,72l-261,0l0,214l277,0l0,73l-322,0C502,674 481,677 456,680C431,683 403,686 368,686C174,686 36,554 36,332C36,139 153,-11 363,-11C394,-11 421,-8 446,-6C470,-3 492,0 512,0l345,0M477,73C455,65 416,60 379,60C220,60 128,172 128,336C128,501 220,615 370,615C419,615 451,609 477,600z"/>
<glyph unicode="&#xD3;" horiz-adv-x="689" d="M348,686C168,686 36,546 36,332C36,128 160,-11 339,-11C511,-11 652,113 652,344C652,545 533,686 348,686M345,615C490,615 560,475 560,340C560,187 482,60 344,60C206,60 128,189 128,334C128,481 200,615 345,615M384,829l-93,-117l71,0l128,117z"/>
<glyph unicode="&#x14E;" horiz-adv-x="689" d="M348,686C168,686 36,546 36,332C36,128 160,-11 339,-11C511,-11 652,113 652,344C652,545 533,686 348,686M345,615C490,615 560,475 560,340C560,187 482,60 344,60C206,60 128,189 128,334C128,481 200,615 345,615M220,830C222,770 258,724 342,724C428,724 465,771 467,830l-51,0C411,804 392,781 344,781C295,781 277,807 272,830z"/>
<glyph unicode="&#xD4;" horiz-adv-x="689" d="M348,686C168,686 36,546 36,332C36,128 160,-11 339,-11C511,-11 652,113 652,344C652,545 533,686 348,686M345,615C490,615 560,475 560,340C560,187 482,60 344,60C206,60 128,189 128,334C128,481 200,615 345,615M309,827l-102,-114l71,0l64,69l2,0l63,-69l74,0l-105,114z"/>
<glyph unicode="&#xD6;" horiz-adv-x="689" d="M348,686C168,686 36,546 36,332C36,128 160,-11 339,-11C511,-11 652,113 652,344C652,545 533,686 348,686M345,615C490,615 560,475 560,340C560,187 482,60 344,60C206,60 128,189 128,334C128,481 200,615 345,615M251,721C281,721 300,744 300,772C300,800 280,822 252,822C224,822 203,799 203,772C203,744 223,721 251,721M436,721C467,721 486,744 486,772C486,800 466,822 438,822C409,822 388,799 388,772C388,744 408,721 436,721z"/>
<glyph unicode="&#xD2;" horiz-adv-x="689" d="M348,686C168,686 36,546 36,332C36,128 160,-11 339,-11C511,-11 652,113 652,344C652,545 533,686 348,686M345,615C490,615 560,475 560,340C560,187 482,60 344,60C206,60 128,189 128,334C128,481 200,615 345,615M199,829l128,-116l71,0l-93,116z"/>
<glyph unicode="&#x1A0;" horiz-adv-x="689" d="M344,60C206,60 128,191 128,334C128,479 200,615 345,615C490,615 560,475 560,340C560,187 482,60 344,60M592,741C602,723 609,701 609,677C609,647 597,632 564,632C532,632 484,658 453,668C427,678 389,686 348,686C168,686 36,546 36,332C36,128 160,-11 339,-11C511,-11 652,113 652,344C652,450 619,531 574,582C646,576 679,617 679,672C679,706 670,732 660,754z"/>
<glyph unicode="&#x150;" horiz-adv-x="689" d="M348,686C168,686 36,546 36,332C36,128 160,-11 339,-11C511,-11 652,113 652,344C652,545 533,686 348,686M345,615C490,615 560,475 560,340C560,187 482,60 344,60C206,60 128,189 128,334C128,481 200,615 345,615M319,830l-80,-112l64,0l111,112M466,830l-80,-112l64,0l111,112z"/>
<glyph unicode="&#x14C;" horiz-adv-x="689" d="M348,686C168,686 36,546 36,332C36,128 160,-11 339,-11C511,-11 652,113 652,344C652,545 533,686 348,686M345,615C490,615 560,475 560,340C560,187 482,60 344,60C206,60 128,189 128,334C128,481 200,615 345,615M225,794l0,-55l240,0l0,55z"/>
<glyph unicode="&#x2126;" horiz-adv-x="705" d="M528,72C595,129 661,228 661,367C661,545 544,686 357,686C178,686 43,551 43,358C44,229 109,128 176,72l0,-3l-146,0l0,-69l254,0l0,55C204,105 134,225 134,351C134,484 213,615 355,615C498,615 571,476 571,353C571,217 502,110 422,55l0,-55l253,0l0,69l-147,0z"/>
<glyph unicode="&#x38F;" horiz-adv-x="742" d="M565,72C633,127 698,226 698,366C698,544 581,686 394,686C215,686 80,550 80,357C80,227 144,128 212,72l0,-3l-146,0l0,-69l254,0l0,55C241,104 171,220 171,350C171,483 250,615 392,615C535,615 608,475 608,351C608,212 539,109 458,55l0,-55l253,0l0,69l-146,0M7,674l-7,-155l52,0l35,155z"/>
<glyph unicode="&#x39F;" horiz-adv-x="689" d="M339,-11C511,-11 652,113 652,344C652,545 533,686 348,686C168,686 36,546 36,332C36,128 160,-11 339,-11M344,60C206,60 128,191 128,334C128,479 200,615 345,615C490,615 560,475 560,340C560,187 482,60 344,60z"/>
<glyph unicode="&#x38C;" horiz-adv-x="728" d="M379,-11C551,-11 692,113 692,344C692,545 573,686 388,686C208,686 76,546 76,332C76,128 200,-11 379,-11M384,60C246,60 168,191 168,334C168,479 240,615 385,615C530,615 600,475 600,340C600,187 522,60 384,60M7,674l-7,-155l52,0l35,155z"/>
<glyph unicode="&#xD8;" horiz-adv-x="689" d="M112,-43l63,86C223,8 282,-11 345,-11C507,-11 652,108 652,343C652,442 621,530 565,591l62,86l-53,36l-59,-81C467,668 409,686 347,686C170,686 36,547 36,334C36,233 69,145 125,84l-62,-87M176,158l-2,-1C144,209 125,263 125,338C125,480 199,616 345,616C396,616 438,598 472,569M513,516l3,0C551,458 563,398 563,340C563,189 484,59 344,59C289,59 251,76 218,107z"/>
<glyph unicode="&#x1FE;" horiz-adv-x="689" d="M112,-43l63,86C223,8 282,-11 345,-11C507,-11 652,108 652,343C652,442 621,530 565,591l62,86l-53,36l-59,-81C467,668 409,686 347,686C170,686 36,547 36,334C36,233 69,145 125,84l-62,-87M176,158l-2,-1C144,209 125,263 125,338C125,480 199,616 345,616C396,616 438,598 472,569M513,516l3,0C551,458 563,398 563,340C563,189 484,59 344,59C289,59 251,76 218,107M392,835l-93,-117l71,0l128,117z"/>
<glyph unicode="&#xD5;" horiz-adv-x="689" d="M348,686C168,686 36,546 36,332C36,128 160,-11 339,-11C511,-11 652,113 652,344C652,545 533,686 348,686M345,615C490,615 560,475 560,340C560,187 482,60 344,60C206,60 128,189 128,334C128,481 200,615 345,615M267,718C270,744 277,761 293,761C308,761 321,752 340,742C362,731 380,723 401,723C447,723 469,757 468,820l-46,0C419,788 410,781 395,781C379,781 363,790 347,799C326,810 310,819 288,819C245,819 219,778 220,718z"/>
<glyph unicode="P" horiz-adv-x="532" d="M76,0l87,0l0,270C183,265 207,264 233,264C318,264 392,289 439,338C473,373 491,421 491,482C491,542 468,591 432,623C392,659 329,679 243,679C173,679 118,673 76,666M163,603C178,607 207,610 245,610C340,610 404,567 404,477C404,386 340,334 235,334C206,334 182,336 163,341z"/>
<glyph unicode="&#x3A6;" horiz-adv-x="718" d="M400,26C541,37 682,138 682,338C682,537 541,640 402,650l0,50l-84,0l0,-50C190,641 36,540 36,333C36,132 179,38 316,26l0,-52l84,0M317,89C219,101 126,187 126,335C126,497 230,581 317,588M401,588C496,579 592,497 592,336C592,182 497,98 401,89z"/>
<glyph unicode="&#x3A0;" horiz-adv-x="634" d="M558,674l-483,0l0,-674l88,0l0,600l307,0l0,-600l88,0z"/>
<glyph unicode="&#x3A8;" horiz-adv-x="685" d="M638,674l-85,0l0,-186C553,334 473,279 384,274l0,400l-83,0l0,-399C202,280 132,332 132,469l0,205l-85,0l0,-220C47,278 171,211 301,206l0,-206l83,0l0,206C533,214 638,304 638,479z"/>
<glyph unicode="Q" horiz-adv-x="689" d="M657,-26C600,-16 527,0 460,17l0,4C572,61 652,171 652,345C652,544 533,686 349,686C167,686 36,547 36,331C36,113 172,-5 333,-11C346,-11 359,-16 374,-21C452,-48 541,-75 632,-99M344,60C206,60 128,189 128,333C128,479 200,615 347,615C490,615 560,476 560,340C560,187 482,60 344,60z"/>
<glyph unicode="R" horiz-adv-x="538" d="M76,0l87,0l0,292l82,0C324,289 361,254 381,161C399,77 414,20 425,0l90,0C501,26 485,91 463,185C447,255 416,303 365,321l0,3C435,348 491,407 491,495C491,548 471,594 438,624C397,661 336,679 243,679C184,679 120,673 76,665M163,604C178,608 207,611 249,611C341,611 404,573 404,486C404,409 345,358 252,358l-89,0z"/>
<glyph unicode="&#x154;" horiz-adv-x="538" d="M76,0l87,0l0,292l82,0C324,289 361,254 381,161C399,77 414,20 425,0l90,0C501,26 485,91 463,185C447,255 416,303 365,321l0,3C435,348 491,407 491,495C491,548 471,594 438,624C397,661 336,679 243,679C184,679 120,673 76,665M163,604C178,608 207,611 249,611C341,611 404,573 404,486C404,409 345,358 252,358l-89,0M302,829l-93,-117l71,0l128,117z"/>
<glyph unicode="&#x158;" horiz-adv-x="538" d="M76,0l87,0l0,292l82,0C324,289 361,254 381,161C399,77 414,20 425,0l90,0C501,26 485,91 463,185C447,255 416,303 365,321l0,3C435,348 491,407 491,495C491,548 471,594 438,624C397,661 336,679 243,679C184,679 120,673 76,665M163,604C178,608 207,611 249,611C341,611 404,573 404,486C404,409 345,358 252,358l-89,0M298,713l102,114l-71,0l-63,-69l-2,0l-64,69l-74,0l105,-114z"/>
<glyph unicode="&#x156;" horiz-adv-x="538" d="M76,0l87,0l0,292l82,0C324,289 361,254 381,161C399,77 414,20 425,0l90,0C501,26 485,91 463,185C447,255 416,303 365,321l0,3C435,348 491,407 491,495C491,548 471,594 438,624C397,661 336,679 243,679C184,679 120,673 76,665M163,604C178,608 207,611 249,611C341,611 404,573 404,486C404,409 345,358 252,358l-89,0M212,-215C274,-211 341,-181 341,-108C341,-75 321,-47 301,-34l-65,-14C254,-63 270,-85 270,-109C270,-148 234,-168 195,-174z"/>
<glyph unicode="&#x3A1;" horiz-adv-x="532" d="M76,0l87,0l0,270C183,265 207,264 233,264C318,264 392,289 439,338C473,373 491,421 491,482C491,542 468,591 432,623C392,659 329,679 243,679C173,679 118,673 76,666M163,603C178,607 207,610 245,610C340,610 404,567 404,477C404,386 340,334 235,334C206,334 182,336 163,341z"/>
<glyph unicode="S" horiz-adv-x="493" d="M42,33C78,9 149,-11 214,-11C373,-11 449,80 449,184C449,283 392,338 278,382C185,418 144,449 144,512C144,558 179,613 271,613C332,613 377,594 398,581l24,71C393,669 342,685 274,685C143,685 56,607 56,502C56,408 124,350 234,310C325,276 361,239 361,177C361,109 309,62 220,62C160,62 104,81 65,106z"/>
<glyph unicode="&#x15A;" horiz-adv-x="493" d="M42,33C78,9 149,-11 214,-11C373,-11 449,80 449,184C449,283 392,338 278,382C185,418 144,449 144,512C144,558 179,613 271,613C332,613 377,594 398,581l24,71C393,669 342,685 274,685C143,685 56,607 56,502C56,408 124,350 234,310C325,276 361,239 361,177C361,109 309,62 220,62C160,62 104,81 65,106M298,829l-92,-117l71,0l128,117z"/>
<glyph unicode="&#x160;" horiz-adv-x="493" d="M42,33C78,9 149,-11 214,-11C373,-11 449,80 449,184C449,283 392,338 278,382C185,418 144,449 144,512C144,558 179,613 271,613C332,613 377,594 398,581l24,71C393,669 342,685 274,685C143,685 56,607 56,502C56,408 124,350 234,310C325,276 361,239 361,177C361,109 309,62 220,62C160,62 104,81 65,106M292,713l102,114l-71,0l-63,-69l-2,0l-64,69l-74,0l105,-114z"/>
<glyph unicode="&#x15E;" horiz-adv-x="493" d="M42,33C80,8 153,-11 211,-11C213,-11 216,-11 218,-11l-40,-70C225,-86 255,-98 255,-123C255,-145 236,-154 214,-154C193,-154 175,-148 159,-140l-14,-43C161,-193 187,-200 214,-200C267,-200 317,-177 317,-120C317,-83 285,-56 247,-50l28,44C393,15 449,95 449,184C449,283 392,338 278,382C185,418 144,449 144,512C144,558 179,613 271,613C332,613 377,594 398,581l24,71C393,669 342,685 274,685C143,685 56,607 56,502C56,408 124,350 234,310C325,276 361,239 361,177C361,109 309,62 220,62C160,62 104,81 65,106z"/>
<glyph unicode="&#xF6C1;" horiz-adv-x="340" d="M42,33C80,8 153,-11 211,-11C213,-11 216,-11 218,-11l-40,-70C225,-86 255,-98 255,-123C255,-145 236,-154 214,-154C193,-154 175,-148 159,-140l-14,-43C161,-193 187,-200 214,-200C267,-200 317,-177 317,-120C317,-83 285,-56 247,-50l28,44C393,15 449,95 449,184C449,283 392,338 278,382C185,418 144,449 144,512C144,558 179,613 271,613C332,613 377,594 398,581l24,71C393,669 342,685 274,685C143,685 56,607 56,502C56,408 124,350 234,310C325,276 361,239 361,177C361,109 309,62 220,62C160,62 104,81 65,106z"/>
<glyph unicode="&#x15C;" horiz-adv-x="493" d="M42,33C78,9 149,-11 214,-11C373,-11 449,80 449,184C449,283 392,338 278,382C185,418 144,449 144,512C144,558 179,613 271,613C332,613 377,594 398,581l24,71C393,669 342,685 274,685C143,685 56,607 56,502C56,408 124,350 234,310C325,276 361,239 361,177C361,109 309,62 220,62C160,62 104,81 65,106M214,827l-103,-114l71,0l64,69l2,0l63,-69l74,0l-105,114z"/>
<glyph unicode="&#x218;" horiz-adv-x="493" d="M42,33C78,9 149,-11 214,-11C373,-11 449,80 449,184C449,283 392,338 278,382C185,418 144,449 144,512C144,558 179,613 271,613C332,613 377,594 398,581l24,71C393,669 342,685 274,685C143,685 56,607 56,502C56,408 124,350 234,310C325,276 361,239 361,177C361,109 309,62 220,62C160,62 104,81 65,106M186,-222C247,-218 314,-188 314,-115C314,-82 294,-54 274,-41l-65,-14C227,-70 243,-92 243,-116C243,-155 207,-175 168,-181z"/>
<glyph unicode="&#x3A3;" horiz-adv-x="552" d="M140,76l217,262l-206,260l0,4l341,0l0,72l-454,0l0,-58l222,-281l-234,-283l0,-52l498,0l0,73l-384,0z"/>
<glyph unicode="T" horiz-adv-x="497" d="M204,0l88,0l0,600l206,0l0,74l-499,0l0,-74l205,0z"/>
<glyph unicode="&#x3A4;" horiz-adv-x="497" d="M204,0l88,0l0,600l206,0l0,74l-499,0l0,-74l205,0z"/>
<glyph unicode="&#x166;" horiz-adv-x="497" d="M498,600l0,74l-499,0l0,-74l205,0l0,-222l-125,0l0,-58l125,0l0,-320l88,0l0,320l124,0l0,58l-124,0l0,222z"/>
<glyph unicode="&#x164;" horiz-adv-x="497" d="M204,0l88,0l0,600l206,0l0,74l-499,0l0,-74l205,0M283,710l102,114l-71,0l-63,-69l-2,0l-64,69l-74,0l105,-114z"/>
<glyph unicode="&#x162;" horiz-adv-x="497" d="M204,0l88,0l0,600l206,0l0,74l-499,0l0,-74l205,0M180,-222C242,-218 309,-188 309,-115C309,-82 289,-54 269,-41l-65,-14C222,-70 238,-92 238,-116C238,-155 202,-175 163,-181z"/>
<glyph unicode="&#x398;" horiz-adv-x="689" d="M340,-11C512,-11 653,113 653,343C653,545 533,686 349,686C169,686 36,545 36,331C36,127 161,-11 340,-11M345,60C207,60 128,191 128,333C128,479 200,615 346,615C491,615 561,475 561,340C561,187 483,60 345,60M209,383l0,-72l271,0l0,72z"/>
<glyph unicode="&#xDE;" horiz-adv-x="531" d="M76,0l86,0l0,156C183,153 210,151 238,151C384,151 491,222 491,365C491,416 471,463 436,495C395,532 337,550 258,550C222,550 189,548 162,543l0,131l-86,0M162,473C178,477 210,481 250,481C341,481 404,442 404,355C404,273 345,221 237,221C211,221 185,222 162,227z"/>
<glyph unicode="U" horiz-adv-x="647" d="M75,674l0,-397C75,67 179,-11 317,-11C463,-11 572,73 572,280l0,394l-88,0l0,-400C484,126 419,60 320,60C230,60 163,124 163,274l0,400z"/>
<glyph unicode="&#xDA;" horiz-adv-x="647" d="M75,674l0,-397C75,67 179,-11 317,-11C463,-11 572,73 572,280l0,394l-88,0l0,-400C484,126 419,60 320,60C230,60 163,124 163,274l0,400M367,827l-93,-117l71,0l128,117z"/>
<glyph unicode="&#x16C;" horiz-adv-x="647" d="M75,674l0,-397C75,67 179,-11 317,-11C463,-11 572,73 572,280l0,394l-88,0l0,-400C484,126 419,60 320,60C230,60 163,124 163,274l0,400M199,827C201,767 237,721 322,721C408,721 445,768 447,827l-51,0C391,801 372,778 323,778C274,778 256,804 251,827z"/>
<glyph unicode="&#xDB;" horiz-adv-x="647" d="M75,674l0,-397C75,67 179,-11 317,-11C463,-11 572,73 572,280l0,394l-88,0l0,-400C484,126 419,60 320,60C230,60 163,124 163,274l0,400M295,824l-102,-114l71,0l64,69l2,0l63,-69l74,0l-105,114z"/>
<glyph unicode="&#xDC;" horiz-adv-x="647" d="M75,674l0,-397C75,67 179,-11 317,-11C463,-11 572,73 572,280l0,394l-88,0l0,-400C484,126 419,60 320,60C230,60 163,124 163,274l0,400M232,721C262,721 281,744 281,772C281,800 261,822 233,822C205,822 184,799 184,772C184,744 204,721 232,721M418,721C449,721 468,744 468,772C468,800 448,822 420,822C391,822 370,799 370,772C370,744 390,721 418,721z"/>
<glyph unicode="&#xD9;" horiz-adv-x="647" d="M75,674l0,-397C75,67 179,-11 317,-11C463,-11 572,73 572,280l0,394l-88,0l0,-400C484,126 419,60 320,60C230,60 163,124 163,274l0,400M183,827l128,-116l71,0l-93,116z"/>
<glyph unicode="&#x1AF;" horiz-adv-x="677" d="M593,770C603,752 609,731 609,712C609,686 597,674 563,674l-79,0l0,-400C484,126 419,60 320,60C230,60 163,124 163,274l0,400l-88,0l0,-397C75,67 179,-11 317,-11C463,-11 572,73 572,280l0,341l15,1C647,624 677,658 677,707C677,735 670,760 660,782z"/>
<glyph unicode="&#x170;" horiz-adv-x="647" d="M75,674l0,-397C75,67 179,-11 317,-11C463,-11 572,73 572,280l0,394l-88,0l0,-400C484,126 419,60 320,60C230,60 163,124 163,274l0,400M283,827l-80,-112l64,0l111,112M430,827l-80,-112l64,0l111,112z"/>
<glyph unicode="&#x16A;" horiz-adv-x="647" d="M75,674l0,-397C75,67 179,-11 317,-11C463,-11 572,73 572,280l0,394l-88,0l0,-400C484,126 419,60 320,60C230,60 163,124 163,274l0,400M203,788l0,-55l240,0l0,55z"/>
<glyph unicode="&#x172;" horiz-adv-x="647" d="M415,-135C402,-141 386,-145 370,-145C344,-145 325,-131 325,-102C325,-67 359,-26 386,-2C495,21 572,109 572,280l0,394l-88,0l0,-400C484,126 420,60 320,60C230,60 163,124 163,274l0,400l-88,0l0,-397C75,71 175,-7 308,-11C310,-11 312,-11 314,-11C287,-40 257,-80 257,-124C257,-174 292,-204 347,-204C374,-204 408,-195 429,-180z"/>
<glyph unicode="&#x3A5;" horiz-adv-x="588" d="M11,609C99,589 193,491 233,310C242,269 247,224 247,174l0,-174l88,0l0,173C335,225 343,271 353,311C399,485 510,581 584,609l-15,71C524,673 463,637 416,587C367,534 315,450 299,342l-4,0C282,448 242,532 191,589C145,643 73,676 26,680z"/>
<glyph unicode="&#x3AB;" horiz-adv-x="588" d="M206,697C236,697 255,720 255,747C255,775 234,797 207,797C179,797 157,774 157,747C157,720 177,697 206,697M389,697C420,697 439,720 439,747C439,775 418,797 391,797C362,797 341,774 341,747C341,720 361,697 389,697M11,609C99,589 193,491 233,310C242,269 247,224 247,174l0,-174l88,0l0,173C335,225 343,271 353,311C399,485 510,581 584,609l-15,71C524,673 463,637 416,587C367,534 315,450 299,342l-4,0C282,448 242,532 191,589C145,643 73,676 26,680z"/>
<glyph unicode="&#x38E;" horiz-adv-x="707" d="M128,609C216,589 310,491 350,310C359,269 364,224 364,174l0,-174l88,0l0,173C452,225 460,271 470,311C516,485 627,581 701,609l-15,71C641,673 580,637 533,587C484,534 432,450 416,342l-4,0C399,448 359,532 308,589C262,643 190,676 143,680M7,674l-7,-155l52,0l34,155z"/>
<glyph unicode="&#x16E;" horiz-adv-x="647" d="M75,674l0,-397C75,67 179,-11 317,-11C463,-11 572,73 572,280l0,394l-88,0l0,-400C484,126 419,60 320,60C230,60 163,124 163,274l0,400M325,872C262,872 224,831 224,781C224,732 264,693 324,693C382,693 423,731 423,781C423,832 385,872 325,872M322,836C352,836 371,812 371,783C371,753 352,730 323,730C294,730 275,755 275,781C275,810 292,836 322,836z"/>
<glyph unicode="&#x168;" horiz-adv-x="647" d="M75,674l0,-397C75,67 179,-11 317,-11C463,-11 572,73 572,280l0,394l-88,0l0,-400C484,126 419,60 320,60C230,60 163,124 163,274l0,400M246,715C249,742 256,759 272,759C287,759 300,750 319,740C342,729 360,721 381,721C427,721 449,755 448,818l-46,0C399,786 390,779 375,779C359,779 343,788 327,797C305,808 289,817 267,817C224,817 198,776 199,715z"/>
<glyph unicode="V" horiz-adv-x="558" d="M320,0l241,674l-93,0l-114,-333C323,253 296,168 277,90l-2,0C256,169 231,251 203,342l-105,332l-95,0l221,-674z"/>
<glyph unicode="W" horiz-adv-x="846" d="M277,0l96,351C398,438 414,504 425,571l2,0C436,503 450,437 471,351l85,-351l91,0l191,674l-89,0l-89,-340C639,250 620,175 606,101l-2,0C594,172 576,252 557,332l-82,342l-91,0l-90,-340C271,247 250,167 239,100l-2,0C225,165 207,249 187,333l-80,341l-92,0l171,-674z"/>
<glyph unicode="&#x1E82;" horiz-adv-x="846" d="M277,0l96,351C398,438 414,504 425,571l2,0C436,503 450,437 471,351l85,-351l91,0l191,674l-89,0l-89,-340C639,250 620,175 606,101l-2,0C594,172 576,252 557,332l-82,342l-91,0l-90,-340C271,247 250,167 239,100l-2,0C225,165 207,249 187,333l-80,341l-92,0l171,-674M477,827l-93,-117l71,0l128,117z"/>
<glyph unicode="&#x174;" horiz-adv-x="846" d="M277,0l96,351C398,438 414,504 425,571l2,0C436,503 450,437 471,351l85,-351l91,0l191,674l-89,0l-89,-340C639,250 620,175 606,101l-2,0C594,172 576,252 557,332l-82,342l-91,0l-90,-340C271,247 250,167 239,100l-2,0C225,165 207,249 187,333l-80,341l-92,0l171,-674M390,824l-102,-114l71,0l64,69l2,0l63,-69l74,0l-105,114z"/>
<glyph unicode="&#x1E84;" horiz-adv-x="846" d="M277,0l96,351C398,438 414,504 425,571l2,0C436,503 450,437 471,351l85,-351l91,0l191,674l-89,0l-89,-340C639,250 620,175 606,101l-2,0C594,172 576,252 557,332l-82,342l-91,0l-90,-340C271,247 250,167 239,100l-2,0C225,165 207,249 187,333l-80,341l-92,0l171,-674M333,721C363,721 382,744 382,772C382,800 362,822 334,822C306,822 285,799 285,772C285,744 305,721 333,721M518,721C549,721 568,744 568,772C568,800 548,822 520,822C491,822 470,799 470,772C470,744 490,721 518,721z"/>
<glyph unicode="&#x1E80;" horiz-adv-x="846" d="M277,0l96,351C398,438 414,504 425,571l2,0C436,503 450,437 471,351l85,-351l91,0l191,674l-89,0l-89,-340C639,250 620,175 606,101l-2,0C594,172 576,252 557,332l-82,342l-91,0l-90,-340C271,247 250,167 239,100l-2,0C225,165 207,249 187,333l-80,341l-92,0l171,-674M273,827l128,-116l71,0l-93,116z"/>
<glyph unicode="X" horiz-adv-x="571" d="M546,0l-210,346l205,328l-101,0l-91,-158C324,473 307,442 288,402l-3,0C267,438 248,472 223,516l-89,158l-101,0l198,-333l-206,-341l100,0l81,148C240,207 260,243 279,282l2,0C302,243 323,206 358,149l87,-149z"/>
<glyph unicode="&#x39E;" horiz-adv-x="540" d="M54,674l0,-72l440,0l0,72M87,385l0,-72l374,0l0,72M43,73l0,-73l462,0l0,73z"/>
<glyph unicode="Y" horiz-adv-x="541" d="M314,0l0,287l225,387l-98,0l-97,-186C318,437 294,393 276,349l-2,0C253,396 232,437 207,488l-95,186l-100,0l214,-388l0,-286z"/>
<glyph unicode="&#xDD;" horiz-adv-x="541" d="M314,0l0,287l225,387l-98,0l-97,-186C318,437 294,393 276,349l-2,0C253,396 232,437 207,488l-95,186l-100,0l214,-388l0,-286M320,822l-93,-117l71,0l128,117z"/>
<glyph unicode="&#x176;" horiz-adv-x="541" d="M314,0l0,287l225,387l-98,0l-97,-186C318,437 294,393 276,349l-2,0C253,396 232,437 207,488l-95,186l-100,0l214,-388l0,-286M236,824l-102,-114l71,0l64,69l2,0l63,-69l74,0l-105,114z"/>
<glyph unicode="&#x178;" horiz-adv-x="541" d="M314,0l0,287l225,387l-98,0l-97,-186C318,437 294,393 276,349l-2,0C253,396 232,437 207,488l-95,186l-100,0l214,-388l0,-286M186,714C216,714 235,737 235,765C235,793 215,815 187,815C159,815 138,792 138,765C138,737 158,714 186,714M371,714C402,714 421,737 421,765C421,793 401,815 373,815C344,815 323,792 323,765C323,737 343,714 371,714z"/>
<glyph unicode="&#x1EF2;" horiz-adv-x="541" d="M314,0l0,287l225,387l-98,0l-97,-186C318,437 294,393 276,349l-2,0C253,396 232,437 207,488l-95,186l-100,0l214,-388l0,-286M131,820l128,-116l71,0l-93,116z"/>
<glyph unicode="Z" horiz-adv-x="553" d="M30,0l492,0l0,73l-377,0l0,3l372,545l0,53l-455,0l0,-73l341,0l0,-3l-373,-547z"/>
<glyph unicode="&#x179;" horiz-adv-x="553" d="M30,0l492,0l0,73l-377,0l0,3l372,545l0,53l-455,0l0,-73l341,0l0,-3l-373,-547M325,827l-93,-117l71,0l128,117z"/>
<glyph unicode="&#x17D;" horiz-adv-x="553" d="M30,0l492,0l0,73l-377,0l0,3l372,545l0,53l-455,0l0,-73l341,0l0,-3l-373,-547M320,710l103,114l-71,0l-63,-69l-2,0l-64,69l-74,0l105,-114z"/>
<glyph unicode="&#x17B;" horiz-adv-x="553" d="M30,0l492,0l0,73l-377,0l0,3l372,545l0,53l-455,0l0,-73l341,0l0,-3l-373,-547M280,720C308,720 329,744 329,771C329,797 308,821 281,821C253,821 231,797 231,771C231,744 252,720 280,720z"/>
<glyph unicode="&#x396;" horiz-adv-x="553" d="M30,0l492,0l0,73l-377,0l0,3l372,545l0,53l-455,0l0,-73l341,0l0,-3l-373,-547z"/>
<glyph unicode="a" horiz-adv-x="482" d="M413,297C413,393 377,494 229,494C168,494 109,477 69,452l20,-59C123,416 170,429 216,429C315,430 326,357 326,318l0,-10C139,309 35,245 35,128C35,58 85,-11 183,-11C252,-11 304,23 331,61l3,0l7,-61l79,0C415,33 413,74 413,116M328,163C328,155 327,145 324,135C310,94 269,54 205,54C161,54 123,80 123,138C123,232 232,249 328,247z"/>
<glyph unicode="&#xE1;" horiz-adv-x="482" d="M413,297C413,393 377,494 229,494C168,494 109,477 69,452l20,-59C123,416 170,429 216,429C315,430 326,357 326,318l0,-10C139,309 35,245 35,128C35,58 85,-11 183,-11C252,-11 304,23 331,61l3,0l7,-61l79,0C415,33 413,74 413,116M328,163C328,155 327,145 324,135C310,94 269,54 205,54C161,54 123,80 123,138C123,232 232,249 328,247M275,693l-87,-143l62,0l122,143z"/>
<glyph unicode="&#x103;" horiz-adv-x="482" d="M413,297C413,393 377,494 229,494C168,494 109,477 69,452l20,-59C123,416 170,429 216,429C315,430 326,357 326,318l0,-10C139,309 35,245 35,128C35,58 85,-11 183,-11C252,-11 304,23 331,61l3,0l7,-61l79,0C415,33 413,74 413,116M328,163C328,155 327,145 324,135C310,94 269,54 205,54C161,54 123,80 123,138C123,232 232,249 328,247M117,682C117,619 153,557 241,557C316,557 365,607 365,682l-52,0C310,648 288,613 240,613C200,613 175,643 169,682z"/>
<glyph unicode="&#xE2;" horiz-adv-x="482" d="M413,297C413,393 377,494 229,494C168,494 109,477 69,452l20,-59C123,416 170,429 216,429C315,430 326,357 326,318l0,-10C139,309 35,245 35,128C35,58 85,-11 183,-11C252,-11 304,23 331,61l3,0l7,-61l79,0C415,33 413,74 413,116M328,163C328,155 327,145 324,135C310,94 269,54 205,54C161,54 123,80 123,138C123,232 232,249 328,247M205,693l-94,-143l66,0l58,94l2,0l58,-94l67,0l-96,143z"/>
<glyph unicode="&#xB4;" horiz-adv-x="300" d="M189,693l-88,-143l62,0l122,143z"/>
<glyph unicode="&#xF6C9;" horiz-adv-x="300" d="M198,827l-93,-117l71,0l128,117z"/>
<glyph unicode="&#xE4;" horiz-adv-x="482" d="M413,297C413,393 377,494 229,494C168,494 109,477 69,452l20,-59C123,416 170,429 216,429C315,430 326,357 326,318l0,-10C139,309 35,245 35,128C35,58 85,-11 183,-11C252,-11 304,23 331,61l3,0l7,-61l79,0C415,33 413,74 413,116M328,163C328,155 327,145 324,135C310,94 269,54 205,54C161,54 123,80 123,138C123,232 232,249 328,247M148,570C178,570 198,594 198,621C198,650 177,672 150,672C121,672 99,649 99,621C99,594 120,570 148,570M333,570C363,570 383,594 383,621C383,650 362,672 334,672C306,672 284,649 284,621C284,594 304,570 333,570z"/>
<glyph unicode="&#xE6;" horiz-adv-x="773" d="M734,233C736,242 737,257 737,272C737,352 696,494 548,494C471,494 411,455 379,392l-2,0C357,454 308,494 221,494C173,494 113,478 70,450l21,-57C120,413 169,429 215,429C313,429 327,346 327,322l0,-20C140,305 36,239 36,127C36,57 86,-11 187,-11C270,-11 336,29 366,96l3,0C397,27 470,-11 553,-11C617,-11 674,2 712,22l-16,62C670,72 631,57 564,57C473,57 406,118 409,233M329,172C329,160 327,148 324,137C310,92 270,53 207,54C161,54 123,83 123,134C123,229 236,245 329,243M409,296C412,351 451,432 539,432C628,432 655,345 653,296z"/>
<glyph unicode="&#x1FD;" horiz-adv-x="773" d="M734,233C736,242 737,257 737,272C737,352 696,494 548,494C471,494 411,455 379,392l-2,0C357,454 308,494 221,494C173,494 113,478 70,450l21,-57C120,413 169,429 215,429C313,429 327,346 327,322l0,-20C140,305 36,239 36,127C36,57 86,-11 187,-11C270,-11 336,29 366,96l3,0C397,27 470,-11 553,-11C617,-11 674,2 712,22l-16,62C670,72 631,57 564,57C473,57 406,118 409,233M329,172C329,160 327,148 324,137C310,92 270,53 207,54C161,54 123,83 123,134C123,229 236,245 329,243M409,296C412,351 451,432 539,432C628,432 655,345 653,296M428,693l-87,-143l62,0l122,143z"/>
<glyph unicode="&#xE0;" horiz-adv-x="482" d="M413,297C413,393 377,494 229,494C168,494 109,477 69,452l20,-59C123,416 170,429 216,429C315,430 326,357 326,318l0,-10C139,309 35,245 35,128C35,58 85,-11 183,-11C252,-11 304,23 331,61l3,0l7,-61l79,0C415,33 413,74 413,116M328,163C328,155 327,145 324,135C310,94 269,54 205,54C161,54 123,80 123,138C123,232 232,249 328,247M95,693l122,-143l62,0l-88,143z"/>
<glyph unicode="&#x3B1;" horiz-adv-x="551" d="M416,484C412,461 409,436 407,399l-4,0C377,458 324,494 254,494C142,494 38,390 38,232C38,85 121,-11 236,-11C313,-11 369,32 401,91l3,0C409,17 444,-11 487,-11C497,-11 510,-10 517,-7l7,63C490,57 476,80 476,137C476,267 484,433 489,484M127,235C127,344 184,425 265,425C329,425 377,366 389,302C393,285 393,269 393,249C393,222 392,203 387,181C372,118 319,59 258,59C174,59 127,143 127,233z"/>
<glyph unicode="&#x3AC;" horiz-adv-x="551" d="M286,686l-54,-143l59,0l83,143M416,484C412,461 409,436 407,399l-4,0C377,458 324,494 254,494C142,494 38,390 38,232C38,85 121,-11 236,-11C313,-11 369,32 401,91l3,0C409,17 444,-11 487,-11C497,-11 510,-10 517,-7l7,63C490,57 476,80 476,137C476,267 484,433 489,484M127,235C127,344 184,425 265,425C329,425 377,366 389,302C393,285 393,269 393,249C393,222 392,203 387,181C372,118 319,59 258,59C174,59 127,143 127,233z"/>
<glyph unicode="&#x101;" horiz-adv-x="482" d="M413,297C413,393 377,494 229,494C168,494 109,477 69,452l20,-59C123,416 170,429 216,429C315,430 326,357 326,318l0,-10C139,309 35,245 35,128C35,58 85,-11 183,-11C252,-11 304,23 331,61l3,0l7,-61l79,0C415,33 413,74 413,116M328,163C328,155 327,145 324,135C310,94 269,54 205,54C161,54 123,80 123,138C123,232 232,249 328,247M129,643l0,-57l225,0l0,57z"/>
<glyph unicode="&amp;" horiz-adv-x="605" d="M602,0C562,43 527,81 491,120C541,179 570,263 588,369l-80,0C495,284 474,219 443,172C400,220 336,293 279,359l0,4C386,416 427,472 427,543C427,631 362,686 278,686C166,686 107,602 107,519C107,472 128,422 163,378l0,-3C86,333 31,270 31,178C31,77 107,-11 238,-11C313,-11 377,12 435,65C461,39 479,19 498,0M254,55C172,55 115,114 115,191C115,263 165,305 202,329C277,242 352,160 392,116C360,81 311,55 254,55M271,626C327,626 350,580 350,539C350,481 306,445 238,406C210,442 187,479 187,528C187,580 216,626 271,626z"/>
<glyph unicode="&#x387;" horiz-adv-x="217" d="M107,251C147,251 172,281 172,318C172,359 146,387 108,387C71,387 44,358 44,318C44,281 70,251 107,251z"/>
<glyph unicode="&#x105;" horiz-adv-x="482" d="M413,297C413,393 377,494 229,494C168,494 109,477 69,452l20,-59C123,416 170,429 216,429C315,430 326,357 326,318l0,-10C139,309 35,245 35,128C35,58 85,-11 183,-11C252,-11 304,23 331,61l3,0l7,-58C322,-25 293,-71 293,-121C293,-176 331,-206 382,-206C409,-206 441,-199 465,-182l-14,46C438,-142 424,-146 405,-146C377,-146 357,-130 357,-96C357,-61 381,-20 396,0l25,0C415,32 413,71 413,116M328,163C328,154 327,144 324,135C310,94 269,54 205,54C161,54 123,80 123,138C123,232 232,249 328,247z"/>
<glyph unicode="&#x2248;" horiz-adv-x="596" d="M533,416C508,390 463,357 417,357C367,357 333,379 303,391C271,405 234,428 176,428C113,428 55,389 23,351l35,-42C85,338 129,368 175,368C225,368 259,346 289,334C322,319 359,297 418,297C480,297 538,335 569,375M538,218C512,189 468,159 421,159C372,159 338,181 308,193C275,206 238,229 180,229C118,229 59,191 27,153l35,-43C89,139 134,169 179,169C230,169 264,147 294,135C326,122 364,99 421,99C483,99 542,137 574,178z"/>
<glyph unicode="&#xE5;" horiz-adv-x="482" d="M413,297C413,393 377,494 229,494C168,494 109,477 69,452l20,-59C123,416 170,429 216,429C315,430 326,357 326,318l0,-10C139,309 35,245 35,128C35,58 85,-11 183,-11C252,-11 304,23 331,61l3,0l7,-61l79,0C415,33 413,74 413,116M328,163C328,155 327,145 324,135C309,94 269,54 205,54C161,54 123,80 123,138C123,232 232,249 328,247M240,537C297,537 340,576 340,628C340,682 301,722 241,722C179,722 139,681 139,628C139,577 181,537 240,537M240,574C210,574 190,601 190,628C190,659 208,685 239,685C271,685 291,660 291,629C291,599 271,574 240,574z"/>
<glyph unicode="&#x1FB;" horiz-adv-x="482" d="M297,834l-107,-106l62,0l142,106M413,297C413,393 377,494 229,494C168,494 110,477 70,452l20,-59C124,416 171,429 216,429C315,430 326,357 326,318l0,-10C139,309 35,245 35,128C35,58 85,-11 183,-11C252,-11 304,23 330,61l3,0l8,-61l79,0C415,33 413,74 413,116M328,163C328,154 327,144 324,135C310,94 269,54 206,54C161,54 123,80 123,138C123,232 232,249 327,247M241,520C297,520 341,559 341,611C341,665 301,705 242,705C179,705 140,664 140,611C140,560 181,520 241,520M240,557C211,557 191,584 191,611C191,641 209,668 239,668C272,668 292,643 292,612C292,582 271,557 240,557z"/>
<glyph unicode="^" horiz-adv-x="596" d="M536,189l-206,461l-63,0l-206,-461l69,0l167,388l2,0l167,-388z"/>
<glyph unicode="~" horiz-adv-x="596" d="M109,210C110,270 132,295 168,295C204,295 241,274 288,251C357,219 393,207 433,207C495,207 552,247 547,358l-59,0C487,303 470,274 434,274C397,274 360,292 310,316C242,348 210,361 168,361C99,361 46,310 49,210z"/>
<glyph unicode="*" horiz-adv-x="415" d="M269,686l-61,-141l-2,0l-62,140l-61,-35l94,-123l0,-2l-147,19l0,-68l148,20l0,-3l-95,-122l57,-36l64,141l2,0l61,-140l63,36l-96,120l0,3l151,-19l0,68l-151,-20l0,2l95,125z"/>
<glyph unicode="@" horiz-adv-x="737" d="M448,255C437,193 384,119 326,119C282,119 260,151 260,195C260,292 331,375 419,375C442,375 459,371 469,367M508,-22C467,-45 414,-57 357,-57C209,-57 100,47 100,214C100,417 237,547 400,547C555,547 642,442 642,296C642,181 585,112 534,114C501,115 489,150 504,226l34,181C512,419 473,428 431,428C292,428 194,315 194,191C194,112 244,65 302,65C362,65 408,94 443,153l3,0C444,91 481,65 521,65C614,65 698,153 698,303C698,470 582,593 408,593C186,593 43,414 43,208C43,15 182,-105 346,-105C413,-105 469,-94 524,-65z"/>
<glyph unicode="&#xF633;" horiz-adv-x="737" d="M448,348C437,286 384,212 326,212C282,212 260,244 260,288C260,385 331,468 419,468C442,468 459,464 469,460M508,71C467,49 414,36 357,36C209,36 100,140 100,307C100,510 237,640 400,640C555,640 642,535 642,389C642,274 585,205 534,207C501,208 489,243 504,319l34,181C512,512 473,521 431,521C292,521 194,408 194,284C194,205 244,158 302,158C362,158 408,187 443,246l3,0C444,184 481,158 521,158C614,158 698,246 698,396C698,563 582,686 408,686C186,686 43,507 43,301C43,108 182,-12 346,-12C413,-12 469,-1 524,28z"/>
<glyph unicode="&#xE3;" horiz-adv-x="482" d="M413,297C413,393 377,494 229,494C168,494 109,477 69,452l20,-59C123,416 170,429 216,429C315,430 326,357 326,318l0,-10C139,309 35,245 35,128C35,58 85,-11 183,-11C252,-11 304,23 331,61l3,0l7,-61l79,0C415,33 413,74 413,116M328,163C328,155 327,145 324,135C310,94 269,54 205,54C161,54 123,80 123,138C123,232 232,249 328,247M163,567C165,595 173,612 189,612C201,612 212,606 232,594C253,583 272,573 294,573C341,573 363,608 362,674l-47,0C313,641 303,632 287,632C275,632 261,640 245,649C222,661 205,671 183,671C140,671 113,632 115,567z"/>
<glyph unicode="b" horiz-adv-x="569" d="M73,125C73,82 71,33 69,0l75,0l5,79l2,0C188,16 244,-11 314,-11C422,-11 532,75 532,248C532,394 448,494 327,494C249,494 193,460 162,406l-2,0l0,304l-87,0M160,280C160,294 162,306 165,317C183,383 239,425 298,425C393,425 443,342 443,245C443,134 389,59 296,59C232,59 180,101 164,162C161,172 160,183 160,194z"/>
<glyph unicode="\" horiz-adv-x="341" d="M342,-39l-272,725l-68,0l272,-725z"/>
<glyph unicode="|" horiz-adv-x="239" d="M86,750l0,-1000l67,0l0,1000z"/>
<glyph unicode="&#x3B2;" horiz-adv-x="560" d="M158,50C196,11 246,-11 314,-11C420,-11 522,62 522,196C522,307 450,371 374,386l0,5C420,413 464,470 464,547C464,651 388,721 288,721C224,721 179,700 146,668C108,631 71,570 71,432l0,-460C71,-98 74,-166 86,-198l82,0C158,-157 156,-73 156,-17l0,67M156,442C156,581 199,651 280,651C339,651 382,605 382,533C382,470 344,411 268,405C263,404 257,404 251,404l0,-60C260,344 269,344 278,344C367,341 434,292 434,195C434,116 377,57 297,57C228,57 178,100 156,137z"/>
<glyph unicode="{" horiz-adv-x="284" d="M28,263C99,263 109,220 109,188C109,162 105,135 102,107C97,80 93,52 93,25C93,-76 156,-112 238,-112l21,0l0,55l-17,0C186,-56 162,-26 162,30C162,54 166,78 169,102C173,127 177,152 177,179C177,243 149,276 104,288l0,2C149,302 178,334 177,398C177,425 173,449 169,474C166,498 162,522 162,545C162,599 183,630 242,631l17,0l0,55l-20,0C154,686 93,647 93,555C93,528 97,500 101,471C105,444 109,416 109,388C108,353 98,314 28,314z"/>
<glyph unicode="&#xF6B2;" horiz-adv-x="284" d="M28,302C99,302 109,259 109,227C109,201 105,174 102,146C97,119 93,91 93,64C93,-37 156,-73 238,-73l21,0l0,55l-17,0C186,-17 162,13 162,69C162,93 166,117 169,141C173,166 177,191 177,218C177,282 149,316 104,327l0,2C149,341 178,373 177,437C177,464 173,488 169,513C166,537 162,561 162,584C162,638 183,669 242,670l17,0l0,55l-20,0C154,725 93,686 93,594C93,567 97,539 101,511C105,483 109,455 109,427C108,392 98,353 28,353z"/>
<glyph unicode="}" horiz-adv-x="284" d="M256,314C185,314 175,353 175,388C175,416 179,444 183,471C187,500 191,528 191,555C191,647 130,686 45,686l-20,0l0,-55l17,0C101,630 122,599 122,545C122,522 118,498 115,474C111,449 107,425 107,398C107,334 135,302 180,290l0,-2C135,276 106,243 107,179C107,152 111,127 115,102C118,78 122,54 122,30C122,-26 98,-56 42,-57l-17,0l0,-55l21,0C128,-112 191,-76 191,25C191,52 187,80 183,107C179,135 175,162 175,188C176,220 186,263 256,263z"/>
<glyph unicode="&#xF6B3;" horiz-adv-x="284" d="M256,353C185,353 175,392 175,427C175,455 179,483 183,511C187,539 191,567 191,594C191,686 130,725 45,725l-20,0l0,-55l17,0C101,669 122,638 122,584C122,561 118,537 115,513C111,488 107,464 107,437C107,373 135,341 180,329l0,-2C135,316 106,282 107,218C107,191 111,166 115,141C118,117 122,93 122,69C122,13 98,-17 42,-18l-17,0l0,-55l21,0C128,-73 191,-37 191,64C191,91 187,119 183,146C179,174 175,201 175,227C176,259 186,302 256,302z"/>
<glyph unicode="[" horiz-adv-x="284" d="M264,-112l0,55l-114,0l0,688l114,0l0,55l-183,0l0,-798z"/>
<glyph unicode="&#xF6B0;" horiz-adv-x="284" d="M264,-73l0,55l-114,0l0,688l114,0l0,55l-183,0l0,-798z"/>
<glyph unicode="]" horiz-adv-x="284" d="M20,686l0,-55l114,0l0,-688l-114,0l0,-55l183,0l0,798z"/>
<glyph unicode="&#xF6B1;" horiz-adv-x="284" d="M20,725l0,-55l114,0l0,-688l-114,0l0,-55l183,0l0,798z"/>
<glyph unicode="&#x2D8;" horiz-adv-x="300" d="M26,682C26,619 62,557 150,557C225,557 274,607 274,682l-52,0C219,648 197,613 149,613C109,613 84,643 78,682z"/>
<glyph unicode="&#xEFEE;" horiz-adv-x="300" d="M26,832C28,772 64,726 149,726C235,726 272,773 274,832l-51,0C218,806 199,783 150,783C101,783 83,809 78,832z"/>
<glyph unicode="&#xF6D4;" horiz-adv-x="301" d="M21,681C25,613 59,557 147,557C224,557 275,600 280,681l-63,0C212,638 192,605 149,605C109,605 88,638 85,681z"/>
<glyph unicode="&#xF6D1;" horiz-adv-x="300" d="M22,834C27,768 66,726 148,726C233,726 273,767 278,834l-67,0C207,801 196,772 150,772C103,772 93,803 89,834z"/>
<glyph unicode="&#xE300;" horiz-adv-x="300" d="M192,774l-79,-132l53,0l111,132M21,657C22,595 62,533 150,533C225,533 278,582 279,657l-50,0C226,623 201,588 150,588C106,588 77,618 71,657z"/>
<glyph unicode="&#xE311;" horiz-adv-x="300" d="M29,802C36,747 74,699 152,699C231,699 272,749 279,802l-47,0C224,775 205,754 153,754C104,754 83,778 76,802M191,896l-74,-104l54,0l112,104z"/>
<glyph unicode="&#xE301;" horiz-adv-x="300" d="M22,773l110,-132l54,0l-80,132M17,657C18,594 58,532 146,532C222,532 274,582 275,657l-49,0C223,623 197,588 146,588C102,588 73,618 67,657z"/>
<glyph unicode="&#xE312;" horiz-adv-x="300" d="M29,896l112,-104l54,0l-74,104M30,802C37,747 75,699 153,699C232,699 273,749 279,802l-46,0C225,775 206,754 154,754C105,754 84,778 77,802z"/>
<glyph unicode="&#xE302;" horiz-adv-x="300" d="M163,634C189,679 232,688 232,737C232,776 197,808 152,808C103,808 75,778 57,744l32,-20C100,741 116,760 136,760C156,760 170,746 170,728C170,696 135,687 119,645M21,657C22,594 62,533 150,533C225,533 277,582 279,657l-50,0C226,623 201,588 150,588C106,588 77,618 71,657z"/>
<glyph unicode="&#xE313;" horiz-adv-x="300" d="M168,778C194,823 237,833 237,882C237,921 203,952 158,952C109,952 80,923 62,888l32,-19C106,885 122,904 142,904C161,904 176,891 176,872C176,841 140,831 125,790M31,802C37,747 75,699 153,699C232,699 273,749 279,802l-46,0C225,775 206,753 154,753C105,753 84,778 78,802z"/>
<glyph unicode="&#xE303;" horiz-adv-x="300" d="M77,697C79,712 86,728 102,728C114,728 125,722 145,711C166,700 185,690 207,690C254,690 276,724 275,786l-47,0C226,754 216,746 200,746C188,746 174,753 158,762C134,774 117,783 96,783C53,783 30,746 28,697M23,657C24,594 61,533 150,533C226,533 276,582 278,657l-50,0C225,623 200,586 149,586C106,586 78,618 72,657z"/>
<glyph unicode="&#xE314;" horiz-adv-x="300" d="M78,836C81,851 87,867 103,867C115,867 126,861 146,850C167,839 185,829 207,829C254,829 276,863 275,925l-47,0C226,893 216,885 201,885C188,885 175,892 159,901C135,913 118,922 97,922C54,922 31,886 29,836M26,802C33,747 71,699 149,699C227,699 268,749 275,802l-47,0C220,775 201,754 150,754C101,754 80,778 73,802z"/>
<glyph unicode="&#xA6;" horiz-adv-x="239" d="M86,174l0,-350l67,0l0,350M86,674l0,-350l67,0l0,350z"/>
<glyph unicode="&#x2022;" horiz-adv-x="282" d="M140,157C199,157 246,204 246,262C246,321 199,367 141,367C83,367 35,320 36,262C36,203 83,157 140,157z"/>
<glyph unicode="c" horiz-adv-x="448" d="M403,83C378,72 345,60 295,60C199,60 127,129 127,241C127,341 187,424 298,424C346,424 379,412 400,401l20,67C396,481 350,494 298,494C140,494 38,385 38,236C38,88 133,-11 279,-11C344,-11 395,6 418,17z"/>
<glyph unicode="&#x107;" horiz-adv-x="448" d="M403,83C378,72 345,60 295,60C199,60 127,129 127,241C127,341 187,424 298,424C346,424 379,412 400,401l20,67C396,481 350,494 298,494C140,494 38,385 38,236C38,88 133,-11 279,-11C344,-11 395,6 418,17M302,693l-88,-143l62,0l122,143z"/>
<glyph unicode="&#x2C7;" horiz-adv-x="300" d="M183,550l94,143l-66,0l-59,-95l-2,0l-59,95l-67,0l96,-143z"/>
<glyph unicode="&#xF6CA;" horiz-adv-x="300" d="M185,710l102,114l-71,0l-63,-69l-2,0l-64,69l-74,0l105,-114z"/>
<glyph unicode="&#x10D;" horiz-adv-x="448" d="M403,83C378,72 345,60 295,60C199,60 127,129 127,241C127,341 187,424 298,424C346,424 379,412 400,401l20,67C396,481 350,494 298,494C140,494 38,385 38,236C38,88 133,-11 279,-11C344,-11 395,6 418,17M294,550l94,143l-66,0l-59,-95l-2,0l-59,95l-67,0l96,-143z"/>
<glyph unicode="&#xE7;" horiz-adv-x="447" d="M403,84C379,73 345,61 295,61C199,61 127,130 127,241C127,342 187,424 298,424C346,424 379,412 400,401l20,67C396,481 350,494 298,494C140,494 38,385 38,237C38,103 117,8 240,-7l-42,-77C245,-89 275,-100 276,-126C276,-150 256,-158 233,-158C213,-158 193,-153 178,-144l-15,-45C182,-200 210,-206 233,-206C287,-206 337,-183 337,-123C337,-82 304,-57 267,-50l25,40C352,-9 398,8 418,18z"/>
<glyph unicode="&#x109;" horiz-adv-x="448" d="M403,83C378,72 345,60 295,60C199,60 127,129 127,241C127,341 187,424 298,424C346,424 379,412 400,401l20,67C396,481 350,494 298,494C140,494 38,385 38,236C38,88 133,-11 279,-11C344,-11 395,6 418,17M229,693l-94,-143l66,0l57,94l2,0l59,-94l67,0l-96,143z"/>
<glyph unicode="&#x10B;" horiz-adv-x="448" d="M403,83C378,72 345,60 295,60C199,60 127,129 127,241C127,341 187,424 298,424C346,424 379,412 400,401l20,67C396,481 350,494 298,494C140,494 38,385 38,236C38,88 133,-11 279,-11C344,-11 395,6 418,17M264,570C294,570 314,594 314,621C314,650 293,673 265,673C237,673 214,650 214,621C214,594 235,570 264,570z"/>
<glyph unicode="&#xB8;" horiz-adv-x="300" d="M135,3l-47,-84C135,-85 166,-97 166,-123C167,-146 145,-154 123,-154C106,-154 86,-149 69,-140l-15,-43C71,-193 98,-200 122,-200C178,-200 227,-178 227,-119C227,-80 193,-54 157,-50l33,53z"/>
<glyph unicode="&#xEFF2;" horiz-adv-x="300" d="M137,2l-47,-86C137,-89 168,-101 168,-127C168,-149 149,-158 126,-158C104,-158 86,-152 71,-144l-15,-45C74,-199 101,-206 127,-206C179,-206 230,-183 230,-125C230,-84 198,-57 160,-51l31,53z"/>
<glyph unicode="&#xA2;" horiz-adv-x="513" d="M331,-14l0,100C380,89 422,104 441,115l-15,64C402,167 366,154 312,154C224,154 155,219 155,329C155,428 217,508 315,508C365,508 399,495 420,483l20,67C416,562 376,574 331,575l0,98l-63,0l0,-100C146,553 67,455 67,326C67,253 89,195 124,157C160,118 204,94 268,87l0,-101z"/>
<glyph unicode="&#xF629;" horiz-adv-x="315" d="M206,-8l0,59C235,53 259,61 272,68l-10,47C247,109 226,102 194,102C144,102 103,136 103,199C103,255 139,296 196,296C225,296 244,289 257,282l13,50C254,339 231,346 206,346l0,57l-46,0l0,-58C83,332 36,271 36,195C36,154 49,119 70,96C92,72 120,57 160,52l0,-60z"/>
<glyph unicode="&#xF6DF;" horiz-adv-x="315" d="M206,-155l0,59C235,-94 259,-85 272,-79l-10,47C247,-38 226,-45 194,-45C144,-45 103,-11 103,52C103,108 139,149 196,149C225,149 244,142 257,135l13,50C254,192 231,199 206,199l0,57l-46,0l0,-58C83,185 36,124 36,48C36,7 49,-28 70,-51C92,-75 120,-90 160,-95l0,-60z"/>
<glyph unicode="&#xF62E;" horiz-adv-x="315" d="M206,258l0,59C235,319 259,327 272,334l-10,47C247,375 226,368 194,368C144,368 103,402 103,465C103,521 139,562 196,562C225,562 244,555 257,548l13,50C254,605 231,612 206,612l0,57l-46,0l0,-58C83,598 36,537 36,461C36,420 49,385 70,362C92,338 120,323 160,318l0,-60z"/>
<glyph unicode="&#xF6E0;" horiz-adv-x="315" d="M206,435l0,59C235,496 259,504 272,511l-10,47C247,552 226,545 194,545C144,545 103,579 103,641C103,697 139,738 196,738C225,738 244,731 257,724l13,50C254,781 231,788 206,788l0,57l-46,0l0,-58C83,774 36,714 36,638C36,597 49,562 70,539C92,515 120,500 160,495l0,-60z"/>
<glyph unicode="&#xF654;" horiz-adv-x="530" d="M403,129C382,119 348,109 301,109C226,109 164,156 164,248C164,332 221,389 305,389C346,389 379,382 399,371l16,60C395,440 357,450 317,451l0,66l-55,0l0,-68C153,433 81,352 81,244C81,130 154,59 262,46l0,-72l55,0l0,72C361,48 400,61 417,70z"/>
<glyph unicode="&#x3C7;" horiz-adv-x="457" d="M18,484l166,-328l-173,-346l75,-23l91,193C195,19 210,54 223,83l4,1l144,-297l82,22l-176,348l170,327l-85,0l-73,-154C269,288 253,255 239,223l-4,0l-123,261z"/>
<glyph unicode="&#x2C6;" horiz-adv-x="300" d="M119,693l-94,-143l66,0l58,94l2,0l58,-94l67,0l-96,143z"/>
<glyph unicode="&#xEFF7;" horiz-adv-x="300" d="M115,824l-102,-114l71,0l64,69l2,0l63,-69l74,0l-105,114z"/>
<glyph unicode="&#xF6D5;" horiz-adv-x="300" d="M82,562C87,605 107,638 150,638C190,638 210,605 214,562l64,0C274,631 240,686 152,686C75,686 23,644 19,562z"/>
<glyph unicode="&#xF6D2;" horiz-adv-x="300" d="M278,726C274,788 234,831 152,831C68,831 27,789 22,726l67,-1C93,755 104,785 150,785C197,785 207,753 211,725z"/>
<glyph unicode="&#xE304;" horiz-adv-x="300" d="M117,693l-84,-143l64,0l51,94l3,0l50,-94l67,0l-86,143M309,774l-69,-131l51,0l99,131z"/>
<glyph unicode="&#xE315;" horiz-adv-x="300" d="M121,823l-92,-114l68,0l55,70l2,0l55,-70l70,0l-94,114M315,899l-84,-105l52,0l121,105z"/>
<glyph unicode="&#xE305;" horiz-adv-x="300" d="M189,774l93,-131l51,0l-64,131M118,693l-85,-143l65,0l50,94l3,0l50,-94l67,0l-86,143z"/>
<glyph unicode="&#xE316;" horiz-adv-x="300" d="M180,881l110,-105l53,0l-72,105M118,823l-93,-114l68,0l55,70l2,0l55,-70l70,0l-94,114z"/>
<glyph unicode="&#xE306;" horiz-adv-x="300" d="M118,693l-85,-143l65,0l50,94l3,0l50,-94l67,0l-86,143M297,634C324,679 366,688 366,737C366,776 331,808 286,808C238,808 209,779 191,744l32,-20C234,741 251,760 271,760C290,760 304,747 304,728C304,696 269,687 253,646z"/>
<glyph unicode="&#xE317;" horiz-adv-x="300" d="M120,824l-92,-114l67,0l55,70l2,0l55,-70l70,0l-94,114M302,754C328,800 371,810 371,858C371,897 337,928 291,928C243,928 214,899 196,864l33,-19C240,862 256,882 278,882C297,882 311,868 311,849C311,817 275,807 260,766z"/>
<glyph unicode="&#xE307;" horiz-adv-x="300" d="M118,667l-90,-117l67,0l54,73l2,0l53,-73l69,0l-91,117M78,679C80,702 88,718 104,718C116,718 127,712 147,702C168,691 186,681 208,681C255,681 277,714 276,777l-47,0C227,745 218,736 202,736C190,736 176,744 160,752C136,764 119,774 98,774C55,774 29,736 30,679z"/>
<glyph unicode="&#xE318;" horiz-adv-x="300" d="M116,824l-102,-114l71,0l64,69l2,0l63,-69l74,0l-105,114M79,837C80,861 89,877 104,877C116,877 128,871 148,860C168,849 187,839 208,839C255,839 278,873 276,935l-46,0C228,903 218,894 202,894C190,894 176,902 160,910C137,922 120,932 98,932C56,932 29,894 30,837z"/>
<glyph unicode=":" horiz-adv-x="207" d="M111,342C148,342 171,369 171,404C171,441 148,467 112,467C78,467 53,441 53,404C53,369 77,342 111,342M111,-11C148,-11 171,16 171,51C171,88 148,114 112,114C78,114 53,88 53,51C53,16 77,-11 111,-11z"/>
<glyph unicode="," horiz-adv-x="207" d="M78,-117C106,-70 150,41 174,126l-98,-10C65,43 38,-64 16,-124z"/>
<glyph unicode="&#xF65F;" horiz-adv-x="131" d="M48,-66C70,-30 96,34 113,90l-74,-6C32,35 16,-27 0,-71z"/>
<glyph unicode="&#xF6E1;" horiz-adv-x="131" d="M48,-213C70,-177 96,-113 113,-57l-74,-6C32,-112 16,-174 0,-218z"/>
<glyph unicode="&#xF66B;" horiz-adv-x="131" d="M48,200C70,236 96,300 113,356l-74,-6C32,301 16,239 0,195z"/>
<glyph unicode="&#xF6E2;" horiz-adv-x="131" d="M48,376C70,412 96,476 113,532l-74,-6C32,477 16,415 0,371z"/>
<glyph unicode="&#xA9;" horiz-adv-x="677" d="M341,648C170,648 36,510 36,340C36,168 170,30 340,30C509,30 641,168 641,340C641,510 509,648 341,648M339,607C481,607 591,489 591,340C591,188 481,69 340,71C196,71 86,188 86,337C86,489 196,607 339,607M474,493C460,505 416,520 364,520C263,520 173,448 173,334C173,233 240,153 356,153C398,153 444,161 479,184l-12,38C444,207 406,196 366,196C274,196 225,259 225,337C225,417 271,477 365,477C412,477 449,461 462,454z"/>
<glyph unicode="&#xA4;" horiz-adv-x="513" d="M257,534C212,534 170,518 141,493l-68,76l-45,-46l76,-71C82,424 65,381 65,329C65,279 82,235 102,208l-72,-70l43,-44l67,74C167,143 213,128 254,128C294,128 341,142 371,170l69,-76l44,44l-75,74C428,237 444,280 444,334C444,383 429,425 409,452l79,71l-45,46l-71,-75C345,518 303,534 257,534M254,471C332,471 373,403 373,333C373,230 310,191 254,191C202,191 136,233 136,330C136,408 181,471 254,471z"/>
<glyph unicode="d" horiz-adv-x="564" d="M403,710l0,-289l-2,0C379,459 330,494 255,494C138,494 37,396 38,235C38,88 129,-11 246,-11C325,-11 383,30 409,84l3,0l4,-84l78,0C492,33 490,82 490,125l0,585M403,203C403,189 402,177 399,165C383,100 329,60 270,60C176,60 127,141 127,239C127,345 181,425 272,425C338,425 386,379 399,324C402,313 403,298 403,287z"/>
<glyph unicode="&#x2020;" horiz-adv-x="500" d="M209,674l8,-211l-174,7l0,-72l174,8l-8,-456l82,0l-8,456l174,-8l0,72l-174,-7l8,211z"/>
<glyph unicode="&#x2021;" horiz-adv-x="500" d="M210,674l6,-201l-172,7l0,-72l172,8l0,-204l-172,8l0,-72l172,7l-6,-205l81,0l-6,205l172,-7l0,72l-172,-8l0,204l172,-8l0,72l-172,-7l6,201z"/>
<glyph unicode="&#x10F;" horiz-adv-x="574" d="M403,710l0,-289l-2,0C379,459 330,494 255,494C138,494 37,396 38,235C38,88 129,-11 246,-11C325,-11 383,30 409,84l3,0l4,-84l78,0C492,33 490,82 490,125l0,585M403,203C403,189 402,177 399,165C383,100 329,60 270,60C176,60 127,141 127,239C127,345 181,425 272,425C338,425 386,379 399,324C402,313 403,298 403,287M572,521C587,533 639,571 639,646C639,679 621,708 603,719l-63,-14C557,690 571,665 571,640C571,599 551,569 535,551z"/>
<glyph unicode="&#x111;" horiz-adv-x="564" d="M568,552l0,55l-78,0l0,103l-87,0l0,-103l-197,0l0,-55l197,0l0,-131l-2,0C379,459 330,494 255,494C138,494 37,396 38,235C38,88 129,-11 246,-11C325,-11 383,30 409,84l3,0l4,-84l78,0C492,33 490,82 490,125l0,427M403,203C403,189 402,177 399,165C383,100 329,60 270,60C176,60 127,141 127,239C127,345 181,425 272,425C338,425 386,379 399,324C402,313 403,298 403,287z"/>
<glyph unicode="&#xB0;" horiz-adv-x="318" d="M163,686C88,686 29,628 29,551C29,481 82,422 160,422C229,422 294,475 294,556C294,624 245,686 163,686M160,639C218,639 240,592 240,555C240,506 207,469 161,469C116,469 83,505 83,551C83,594 109,639 160,639z"/>
<glyph unicode="&#x3B4;" horiz-adv-x="546" d="M466,673C438,696 376,721 306,721C192,721 137,661 137,608C137,562 176,527 199,508l22,-18l0,-5C123,439 38,356 38,233C38,77 148,-11 273,-11C404,-11 508,86 508,236C508,332 460,402 380,464l-82,65C252,564 226,583 226,610C226,634 253,655 308,655C363,655 419,630 440,614M327,402C389,354 420,298 420,230C420,120 355,55 278,55C202,55 127,120 127,233C127,339 197,404 273,444z"/>
<glyph unicode="&#xA8;" horiz-adv-x="300" d="M56,570C86,570 106,594 106,621C106,650 85,672 58,672C29,672 7,649 7,621C7,594 28,570 56,570M242,570C272,570 292,594 292,621C292,650 271,672 243,672C215,672 193,649 193,621C193,594 213,570 242,570z"/>
<glyph unicode="&#xF6CB;" horiz-adv-x="300" d="M57,721C87,721 106,744 106,772C106,800 86,822 58,822C30,822 9,799 9,772C9,744 29,721 57,721M242,721C273,721 292,744 292,772C292,800 272,822 244,822C215,822 194,799 194,772C194,744 214,721 242,721z"/>
<glyph unicode="&#xF6D7;" horiz-adv-x="301" d="M23,573C52,573 72,594 72,622C72,650 52,671 25,671C-3,671 -24,649 -24,622C-24,596 -4,573 23,573M269,573C299,573 319,594 319,622C319,650 299,671 272,671C244,671 223,649 223,622C223,596 242,573 269,573M151,701l-77,-143l58,0l111,143z"/>
<glyph unicode="&#xF6CC;" horiz-adv-x="301" d="M13,721C42,721 62,742 62,770C62,798 42,820 15,820C-12,820 -33,798 -33,770C-33,744 -14,721 13,721M286,721C316,721 336,742 336,770C336,798 316,820 289,820C262,820 241,798 241,770C241,744 260,721 286,721M142,828l-81,-117l67,0l116,117z"/>
<glyph unicode="&#xF6D8;" horiz-adv-x="301" d="M27,573C56,573 76,594 76,622C76,650 56,671 29,671C1,671 -20,649 -20,622C-20,596 0,573 27,573M268,573C298,573 318,594 318,622C318,650 298,671 271,671C243,671 222,649 222,622C222,596 241,573 268,573M56,701l112,-143l58,0l-78,143z"/>
<glyph unicode="&#xF6CD;" horiz-adv-x="301" d="M12,721C41,721 61,742 61,770C61,798 41,820 14,820C-13,820 -34,798 -34,770C-34,744 -15,721 12,721M286,721C316,721 336,742 336,770C336,798 316,820 289,820C262,820 241,798 241,770C241,744 260,721 286,721M56,828l117,-117l67,0l-81,117z"/>
<glyph unicode="&#x385;" horiz-adv-x="346" d="M152,710l-21,-157l48,0l49,157M50,573C78,573 97,595 97,620C97,647 77,668 52,668C25,668 4,647 4,620C4,595 23,573 50,573M291,573C320,573 339,595 339,620C339,647 319,668 293,668C267,668 246,647 246,620C246,595 265,573 291,573z"/>
<glyph unicode="&#xF7;" horiz-adv-x="596" d="M297,387C330,387 351,411 351,442C351,475 330,498 298,498C267,498 245,475 245,442C245,411 266,387 297,387M556,237l0,60l-516,0l0,-60M297,36C330,36 351,60 351,91C351,124 330,147 298,147C267,147 245,124 245,91C245,60 266,36 297,36z"/>
<glyph unicode="$" horiz-adv-x="513" d="M281,-85l0,104C384,35 439,109 439,189C439,278 387,329 284,371C197,408 160,434 160,485C160,526 189,572 266,572C330,572 371,549 392,537l25,66C387,620 346,636 287,638l0,97l-63,0l0,-100C133,620 74,557 74,474C74,387 137,340 239,300C313,270 352,236 352,181C352,124 304,83 233,83C177,83 125,103 90,126l-24,-67C101,34 160,16 218,15l0,-100z"/>
<glyph unicode="&#xF62A;" horiz-adv-x="317" d="M179,-51l0,62C245,21 280,66 280,115C280,169 249,201 182,226C125,247 106,260 106,287C106,309 121,333 167,333C208,333 236,319 249,312l16,49C247,371 219,381 182,382l0,56l-45,0l0,-59C76,369 40,330 40,279C40,224 79,197 145,173C193,155 214,139 214,109C214,79 187,58 145,58C108,58 75,70 51,85l-16,-50C58,20 96,9 134,8l0,-59z"/>
<glyph unicode="&#xF6E3;" horiz-adv-x="317" d="M179,-198l0,62C245,-126 280,-81 280,-32C280,22 249,54 182,79C125,100 106,113 106,140C106,162 121,186 167,186C208,186 236,172 249,165l16,49C247,224 219,234 182,235l0,56l-45,0l0,-59C76,222 40,183 40,132C40,77 79,50 145,26C193,8 214,-8 214,-38C214,-68 187,-89 145,-89C108,-89 75,-77 51,-62l-16,-50C58,-127 96,-138 134,-139l0,-59z"/>
<glyph unicode="&#xF62F;" horiz-adv-x="317" d="M179,215l0,62C245,287 280,332 280,381C280,435 249,467 182,492C125,513 106,526 106,553C106,575 121,599 167,599C208,599 236,585 249,578l16,49C247,637 219,647 182,648l0,56l-45,0l0,-59C76,635 40,596 40,545C40,490 79,463 145,439C193,421 214,405 214,375C214,345 187,324 145,324C108,324 75,336 51,351l-16,-50C58,286 96,275 134,274l0,-59z"/>
<glyph unicode="&#xF6E4;" horiz-adv-x="317" d="M179,391l0,62C245,463 280,508 280,557C280,611 249,643 182,668C125,689 106,702 106,729C106,751 121,775 167,775C208,775 236,761 249,754l16,49C247,813 219,823 182,824l0,56l-45,0l0,-59C76,811 40,772 40,721C40,666 79,639 145,615C193,597 214,581 214,551C214,521 187,500 145,500C108,500 75,512 51,527l-16,-50C58,462 96,451 134,450l0,-59z"/>
<glyph unicode="&#xF653;" horiz-adv-x="530" d="M294,-81l0,82C390,15 444,76 444,139C444,204 398,247 297,280C211,308 188,327 188,362C188,399 230,424 285,424C332,424 377,408 401,394l23,60C399,468 355,483 301,485l0,83l-57,0l0,-86C159,472 101,423 101,356C101,289 151,253 253,219C324,195 354,174 354,135C354,90 305,63 247,63C199,63 142,79 114,99l-24,-60C124,16 184,0 237,-1l0,-80z"/>
<glyph unicode="&#x20AB;" horiz-adv-x="513" d="M89,98l0,-59l337,0l0,59M346,664l0,-67l-126,0l0,-49l126,0l0,-88l-2,0C326,490 289,512 236,512C143,512 67,442 67,327C67,223 136,153 226,153C286,153 330,180 351,218l2,0l3,-57l69,0C423,184 422,219 422,249l0,299l62,0l0,49l-62,0l0,67M346,310C346,302 345,291 342,284C331,240 291,212 247,212C182,212 147,265 147,330C147,401 185,453 250,453C297,453 334,421 343,384C345,377 346,366 346,357z"/>
<glyph unicode="&#xE184;" horiz-adv-x="513" d="M346,664l0,-67l-126,0l0,-49l126,0l0,-88l-2,0C326,490 289,512 236,512C143,512 67,442 68,327C68,223 136,153 226,153C286,153 330,180 351,218l2,0l3,-57l69,0C423,184 422,219 422,249l0,299l62,0l0,49l-62,0l0,67M346,310C346,302 345,291 342,284C331,240 291,212 247,212C182,212 148,265 148,330C148,401 186,453 250,453C297,453 334,421 343,384C345,377 346,366 346,357z"/>
<glyph unicode="&#x2D9;" horiz-adv-x="300" d="M139,570C169,570 189,594 189,621C189,650 168,673 140,673C112,673 89,650 89,621C89,594 110,570 139,570z"/>
<glyph unicode="&#xEFED;" horiz-adv-x="300" d="M150,721C178,721 199,745 199,772C199,798 178,822 151,822C123,822 101,798 101,772C101,745 122,721 150,721z"/>
<glyph unicode="&#x131;" horiz-adv-x="234" d="M161,0l0,484l-88,0l0,-484z"/>
<glyph unicode="e" horiz-adv-x="501" d="M462,226C464,236 465,249 465,267C465,356 424,494 265,494C124,494 38,380 38,234C38,88 127,-11 276,-11C353,-11 407,6 438,20l-16,63C390,69 351,58 288,58C199,58 124,107 122,226M123,289C130,350 168,431 258,431C357,431 381,344 380,289z"/>
<glyph unicode="&#xE9;" horiz-adv-x="501" d="M462,226C464,236 465,249 465,267C465,356 424,494 265,494C124,494 38,380 38,234C38,88 127,-11 276,-11C353,-11 407,6 438,20l-16,63C390,69 351,58 288,58C199,58 124,107 122,226M123,289C130,350 168,431 258,431C357,431 381,344 380,289M304,693l-88,-143l62,0l122,143z"/>
<glyph unicode="&#x115;" horiz-adv-x="501" d="M462,226C464,236 465,249 465,267C465,356 424,494 265,494C124,494 38,380 38,234C38,88 127,-11 276,-11C353,-11 407,6 438,20l-16,63C390,69 351,58 288,58C199,58 124,107 122,226M123,289C130,350 168,431 258,431C357,431 381,344 380,289M129,682C129,619 165,557 253,557C328,557 377,607 377,682l-52,0C322,648 300,613 252,613C212,613 187,643 181,682z"/>
<glyph unicode="&#x11B;" horiz-adv-x="501" d="M462,226C464,236 465,249 465,267C465,356 424,494 265,494C124,494 38,380 38,234C38,88 127,-11 276,-11C353,-11 407,6 438,20l-16,63C390,69 351,58 288,58C199,58 124,107 122,226M123,289C130,350 168,431 258,431C357,431 381,344 380,289M285,550l94,143l-66,0l-59,-95l-2,0l-59,95l-67,0l96,-143z"/>
<glyph unicode="&#xEA;" horiz-adv-x="501" d="M462,226C464,236 465,249 465,267C465,356 424,494 265,494C124,494 38,380 38,234C38,88 127,-11 276,-11C353,-11 407,6 438,20l-16,63C390,69 351,58 288,58C199,58 124,107 122,226M123,289C130,350 168,431 258,431C357,431 381,344 380,289M231,693l-94,-143l66,0l58,94l2,0l58,-94l67,0l-96,143z"/>
<glyph unicode="&#xEB;" horiz-adv-x="501" d="M462,226C464,236 465,249 465,267C465,356 424,494 265,494C124,494 38,380 38,234C38,88 127,-11 276,-11C353,-11 407,6 438,20l-16,63C390,69 351,58 288,58C199,58 124,107 122,226M123,289C130,350 168,431 258,431C357,431 381,344 380,289M175,570C205,570 225,594 225,621C225,650 204,672 177,672C148,672 126,649 126,621C126,594 147,570 175,570M360,570C390,570 410,594 410,621C410,650 389,672 361,672C333,672 311,649 311,621C311,594 331,570 360,570z"/>
<glyph unicode="&#x117;" horiz-adv-x="501" d="M462,226C464,236 465,249 465,267C465,356 424,494 265,494C124,494 38,380 38,234C38,88 127,-11 276,-11C353,-11 407,6 438,20l-16,63C390,69 351,58 288,58C199,58 124,107 122,226M123,289C130,350 168,431 258,431C357,431 381,344 380,289M254,570C284,570 304,594 304,621C304,650 283,673 255,673C227,673 204,650 204,621C204,594 225,570 254,570z"/>
<glyph unicode="&#xE8;" horiz-adv-x="501" d="M462,226C464,236 465,249 465,267C465,356 424,494 265,494C124,494 38,380 38,234C38,88 127,-11 276,-11C353,-11 407,6 438,20l-16,63C390,69 351,58 288,58C199,58 124,107 122,226M123,289C130,350 168,431 258,431C357,431 381,344 380,289M135,693l122,-143l62,0l-88,143z"/>
<glyph unicode="8" horiz-adv-x="513" d="M166,339C86,305 37,246 37,164C37,69 119,-11 255,-11C379,-11 476,64 476,178C476,256 426,314 345,346l0,3C425,386 453,446 453,501C453,583 389,661 263,661C148,661 61,591 61,488C61,432 92,376 165,342M257,53C174,53 124,111 127,176C127,238 168,289 244,311C332,286 387,247 387,169C387,102 336,53 257,53M258,598C337,598 368,544 368,492C368,433 325,393 269,374C194,394 144,429 145,494C145,550 185,598 258,598z"/>
<glyph unicode="&#xF65D;" horiz-adv-x="328" d="M168,395C94,395 38,353 38,290C38,256 58,223 101,204l0,-3C53,181 24,149 24,101C24,46 72,-5 162,-5C245,-5 304,41 304,110C304,158 271,191 226,208l0,2C271,230 289,265 289,298C289,348 249,395 168,395M164,42C118,42 91,74 91,109C91,142 114,169 157,181C204,168 236,148 236,104C236,69 208,42 164,42M164,349C208,349 226,319 226,291C226,259 202,238 171,228C128,239 101,259 101,293C101,323 123,349 164,349z"/>
<glyph unicode="&#xF640;" horiz-adv-x="513" d="M166,339C86,305 37,246 37,164C37,69 119,-11 255,-11C379,-11 476,64 476,178C476,256 426,314 345,346l0,3C425,386 453,446 453,501C453,583 389,661 263,661C148,661 61,591 61,488C61,432 92,376 165,342M257,53C174,53 124,111 127,176C127,238 168,289 244,311C332,286 387,247 387,169C387,102 336,53 257,53M258,598C337,598 368,544 368,492C368,433 325,393 269,374C194,394 144,429 145,494C145,550 185,598 258,598z"/>
<glyph unicode="&#x2088;" horiz-adv-x="328" d="M168,248C94,248 38,206 38,143C38,109 58,76 101,57l0,-3C53,34 24,2 24,-46C24,-101 72,-152 162,-152C245,-152 304,-106 304,-37C304,11 271,44 226,61l0,2C271,83 289,118 289,151C289,201 249,248 168,248M164,-105C118,-105 91,-73 91,-38C91,-5 114,22 157,34C204,21 236,1 236,-43C236,-78 208,-105 164,-105M164,202C208,202 226,172 226,144C226,112 202,91 171,81C128,92 101,112 101,146C101,176 123,202 164,202z"/>
<glyph unicode="&#xF669;" horiz-adv-x="328" d="M168,661C94,661 38,619 38,555C38,521 58,488 101,469l0,-3C53,447 24,414 24,366C24,312 72,261 162,261C245,261 304,307 304,375C304,423 271,456 226,473l0,2C271,495 289,530 289,564C289,614 249,661 168,661M164,308C118,308 91,340 91,374C91,408 114,434 157,446C204,434 236,414 236,370C236,335 208,308 164,308M164,615C208,615 226,585 226,557C226,524 202,503 171,493C128,504 101,524 101,559C101,589 123,615 164,615z"/>
<glyph unicode="&#xF738;" horiz-adv-x="513" d="M344,320C415,354 449,398 449,456C449,540 375,607 262,607C151,607 65,541 65,445C65,382 110,340 166,316l0,-3C92,280 41,227 41,155C41,58 127,-11 254,-11C374,-11 472,58 472,166C472,237 419,290 343,317M261,547C315,547 367,515 367,452C367,396 324,360 271,344C195,364 150,398 150,452C150,511 200,547 261,547M256,52C177,52 129,98 129,163C129,219 174,265 240,287C331,263 382,221 382,158C382,94 326,52 256,52z"/>
<glyph unicode="&#x2078;" horiz-adv-x="328" d="M168,837C94,837 38,795 38,732C38,698 58,665 101,646l0,-3C53,623 24,591 24,543C24,489 72,438 162,438C245,438 304,484 304,552C304,600 271,633 226,650l0,2C271,672 289,707 289,740C289,790 249,837 168,837M164,485C118,485 91,516 91,551C91,585 114,611 157,623C204,611 236,590 236,547C236,511 208,485 164,485M164,791C208,791 226,761 226,733C226,701 202,680 171,670C128,681 101,701 101,735C101,765 123,791 164,791z"/>
<glyph unicode="&#xF64B;" horiz-adv-x="530" d="M351,320C422,354 456,398 456,456C456,540 382,607 269,607C158,607 72,541 72,445C72,382 117,340 173,316l0,-3C99,280 48,227 48,155C48,58 134,-11 261,-11C381,-11 479,58 479,166C479,237 426,290 350,317M268,547C322,547 374,515 374,452C374,396 331,360 278,344C202,364 157,398 157,452C157,511 207,547 268,547M263,52C184,52 136,98 136,163C136,219 181,265 247,287C338,263 389,221 389,158C389,94 333,52 263,52z"/>
<glyph unicode="&#x2026;" horiz-adv-x="1000" d="M165,-11C202,-11 226,16 226,52C226,89 202,115 167,115C132,115 107,88 107,52C107,16 131,-11 165,-11M498,-11C535,-11 559,16 559,52C559,89 535,115 500,115C465,115 440,88 440,52C440,16 464,-11 498,-11M831,-11C868,-11 892,16 892,52C892,89 868,115 833,115C798,115 773,88 773,52C773,16 797,-11 831,-11z"/>
<glyph unicode="&#x113;" horiz-adv-x="501" d="M462,226C464,236 465,249 465,267C465,356 424,494 265,494C124,494 38,380 38,234C38,88 127,-11 276,-11C353,-11 407,6 438,20l-16,63C390,69 351,58 288,58C199,58 124,107 122,226M123,289C130,350 168,431 258,431C357,431 381,344 380,289M141,643l0,-57l225,0l0,57z"/>
<glyph unicode="&#x2014;" horiz-adv-x="1000" d="M30,284l0,-60l940,0l0,60z"/>
<glyph unicode="&#xF6BC;" horiz-adv-x="1000" d="M30,359l0,-60l940,0l0,60z"/>
<glyph unicode="&#x2013;" horiz-adv-x="500" d="M30,284l0,-60l440,0l0,60z"/>
<glyph unicode="&#xF6BB;" horiz-adv-x="500" d="M30,359l0,-60l440,0l0,60z"/>
<glyph unicode="&#x14B;" horiz-adv-x="555" d="M73,0l88,0l0,291C161,306 163,321 167,332C183,381 228,422 285,422C368,422 397,357 397,279l0,-228C397,-42 358,-93 278,-109l17,-70C402,-164 485,-95 485,59l0,229C485,454 381,494 314,494C234,494 178,449 154,404l-2,0l-5,80l-78,0C72,444 73,404 73,353z"/>
<glyph unicode="&#x119;" horiz-adv-x="501" d="M385,-136C371,-143 352,-146 338,-146C317,-146 297,-133 297,-104C297,-63 352,-14 392,3C400,6 422,13 437,20l-15,63C389,69 351,58 288,58C199,58 124,107 122,226l340,0C464,235 465,249 465,267C465,356 424,494 265,494C124,494 38,380 38,234C38,89 127,-10 274,-11C284,-11 292,-10 301,-10l0,-1C269,-33 229,-78 229,-127C229,-177 264,-205 318,-205C348,-205 377,-197 399,-181M124,289C131,350 169,431 259,431C357,431 381,344 380,289z"/>
<glyph unicode="&#x3B5;" horiz-adv-x="440" d="M159,257C88,246 39,195 39,136C39,27 146,-11 243,-11C311,-11 383,8 420,33l-16,60C375,75 315,56 262,56C191,56 131,86 131,143C131,202 196,226 283,226l62,0l0,62l-59,0C210,288 151,309 151,358C151,401 195,430 263,430C311,430 363,413 384,399l19,59C368,481 318,494 256,494C127,494 63,428 63,364C64,316 96,275 159,261z"/>
<glyph unicode="&#x3AD;" horiz-adv-x="440" d="M257,686l-54,-143l59,0l83,143M159,257C88,245 39,195 39,136C39,27 146,-11 243,-11C311,-11 383,8 420,33l-16,59C375,75 315,56 262,56C191,56 131,86 131,143C131,202 196,226 283,226l62,0l0,62l-59,0C210,288 151,309 151,358C151,401 195,430 263,430C311,430 363,413 384,399l19,58C367,481 318,494 256,494C127,494 63,428 63,364C64,315 95,275 159,261z"/>
<glyph unicode="=" horiz-adv-x="596" d="M556,337l0,60l-516,0l0,-60M556,141l0,60l-516,0l0,-60z"/>
<glyph unicode="&#x212E;" horiz-adv-x="817" d="M782,316C782,319 782,322 782,325C782,511 615,661 409,661C203,661 35,511 35,325C35,139 203,-11 409,-11C529,-11 637,41 705,120l-55,0C592,52 506,9 410,9C320,9 238,47 181,108C176,114 172,121 172,129l0,183C172,315 174,316 177,316M646,340C646,337 644,335 641,335l-464,0C174,335 172,337 172,340l0,180C172,529 176,537 182,543C240,603 320,641 410,641C498,641 578,604 636,546C642,540 646,533 646,524z"/>
<glyph unicode="&#x3B7;" horiz-adv-x="555" d="M152,404C152,435 147,466 138,484l-79,0C70,451 73,402 73,353l0,-353l88,0l0,292C161,306 163,322 167,332C183,381 228,422 285,422C368,422 397,357 397,279l0,-300C397,-85 400,-168 412,-198l84,0C486,-158 485,-73 485,-18l0,306C485,454 381,494 314,494C234,494 178,449 154,404z"/>
<glyph unicode="&#x3AE;" horiz-adv-x="555" d="M301,686l-53,-143l58,0l84,143M152,404C152,435 147,466 138,484l-79,0C70,451 73,402 73,353l0,-353l88,0l0,292C161,306 163,322 167,332C183,381 228,422 285,422C368,422 397,357 397,279l0,-300C397,-85 400,-168 412,-198l84,0C486,-158 485,-73 485,-18l0,306C485,454 381,494 314,494C234,494 178,449 154,404z"/>
<glyph unicode="&#xF0;" horiz-adv-x="541" d="M268,55C187,55 128,135 128,237C128,317 167,424 271,424C322,424 355,402 377,377C402,346 411,306 411,243C411,133 355,55 268,55M116,507l142,66C309,534 347,491 376,444l-2,-3C335,477 299,484 261,484C147,483 38,392 38,236C38,85 136,-11 267,-11C382,-11 501,67 501,252C501,327 486,391 458,447C429,507 386,561 331,606l106,50l-22,44l-127,-61C245,670 195,699 148,720l-39,-55C146,648 184,627 213,605l-116,-55z"/>
<glyph unicode="!" horiz-adv-x="230" d="M149,193l14,481l-96,0l14,-481M114,-11C151,-11 174,16 174,51C174,87 151,113 116,113C81,113 56,87 56,51C56,16 80,-11 114,-11z"/>
<glyph unicode="&#xA1;" horiz-adv-x="230" d="M163,-195l-14,477l-68,0l-14,-477M116,488C81,488 56,462 56,425C56,391 80,364 115,364C151,364 174,391 174,425C174,462 151,488 116,488z"/>
<glyph unicode="&#xF6B4;" horiz-adv-x="230" d="M163,0l-14,477l-68,0l-14,-477M116,683C81,683 56,657 56,620C56,586 80,559 115,559C151,559 174,586 174,620C174,657 151,683 116,683z"/>
<glyph unicode="f" horiz-adv-x="292" d="M169,0l0,417l117,0l0,67l-117,0l0,26C169,585 188,650 263,650C289,650 306,645 319,639l12,68C314,714 288,721 256,721C215,721 171,708 138,676C98,637 82,575 82,507l0,-23l-67,0l0,-67l67,0l0,-417z"/>
<glyph unicode="&#xFB00;" horiz-adv-x="583" d="M460,0l0,417l116,0l0,67l-116,0l0,26C460,585 479,650 553,650C579,650 596,645 610,639l11,68C605,714 578,721 546,721C506,721 462,708 429,676C388,637 373,575 373,507l0,-23l-204,0l0,20C169,580 188,639 257,639C277,639 296,633 309,626l18,66C312,700 286,709 258,709C204,709 164,692 136,664C98,625 82,567 82,499l0,-15l-67,0l0,-67l67,0l0,-417l87,0l0,417l204,0l0,-417z"/>
<glyph unicode="&#xFB03;" horiz-adv-x="815" d="M705,690C679,707 628,721 584,721C448,721 373,638 373,511l0,-27l-204,0l0,18C169,544 177,588 201,614C216,629 236,639 264,639C286,639 309,631 324,622l25,65C331,696 297,708 264,708C210,708 168,690 140,661C99,621 82,561 82,501l0,-17l-67,0l0,-67l67,0l0,-417l87,0l0,417l204,0l0,-417l87,0l0,417l194,0l0,-417l88,0l0,484l-282,0l0,24C460,585 488,650 580,650C621,650 657,638 679,624z"/>
<glyph unicode="&#xE003;" horiz-adv-x="809" d="M705,690C679,707 628,721 584,721C448,721 373,638 373,511l0,-27l-204,0l0,18C169,544 177,588 201,614C216,629 236,639 264,639C286,639 309,631 324,622l25,65C331,696 297,708 264,708C210,708 168,690 140,661C99,621 82,561 82,501l0,-17l-67,0l0,-67l67,0l0,-417l87,0l0,417l204,0l0,-417l87,0l0,417l194,0l0,-340C654,-39 644,-77 620,-105C599,-128 565,-139 524,-142l10,-69C581,-211 645,-195 684,-156C727,-112 742,-51 742,43l0,441l-282,0l0,24C460,585 488,650 580,650C621,650 657,638 679,624z"/>
<glyph unicode="&#xFB04;" horiz-adv-x="815" d="M349,690C334,697 301,708 268,708C214,708 169,690 138,660C97,619 82,557 82,495l0,-11l-67,0l0,-67l67,0l0,-417l87,0l0,417l204,0l0,-417l88,0l0,417l113,0l0,67l-114,0l0,25C460,586 491,653 582,653C616,653 639,648 654,640l0,-640l88,0l0,689C705,709 653,721 597,721C529,721 479,704 442,672C396,633 373,573 373,505l0,-21l-204,0l0,19C169,547 177,588 202,614C217,630 237,639 266,639C287,639 308,634 326,624z"/>
<glyph unicode="&#xE004;" horiz-adv-x="522" d="M169,0l0,417l193,0l0,-340C362,-39 352,-77 328,-105C308,-128 273,-139 233,-142l9,-69C289,-211 353,-195 392,-156C435,-112 450,-51 450,43l0,441l-281,0l0,24C169,585 196,650 289,650C332,650 369,637 391,622l25,67C391,707 338,721 293,721C157,721 82,638 82,511l0,-27l-67,0l0,-67l67,0l0,-417z"/>
<glyph unicode="&#xFB01;" horiz-adv-x="523" d="M169,0l0,417l193,0l0,-417l88,0l0,484l-281,0l0,24C169,585 196,650 289,650C332,650 369,637 391,622l25,67C391,707 338,721 293,721C157,721 82,638 82,511l0,-27l-67,0l0,-67l67,0l0,-417z"/>
<glyph unicode="5" horiz-adv-x="513" d="M433,650l-311,0l-42,-312C104,341 133,344 171,344C300,344 357,285 357,201C358,114 286,60 204,60C144,60 91,80 64,96l-22,-67C74,9 133,-11 204,-11C345,-11 446,84 446,211C446,292 404,349 353,377C313,402 264,412 213,412C189,412 175,411 160,409l25,167l248,0z"/>
<glyph unicode="&#xF65A;" horiz-adv-x="308" d="M268,388l-202,0l-26,-191C55,198 75,201 97,201C178,201 210,168 210,122C210,74 167,46 122,46C84,46 50,58 33,68l-14,-50C39,7 80,-6 124,-6C216,-6 279,51 279,128C279,177 254,211 224,228C197,244 164,249 131,249C118,249 108,249 100,248l13,85l155,0z"/>
<glyph unicode="&#xF63D;" horiz-adv-x="460" d="M406,650l-311,0l-42,-312C77,341 106,344 144,344C273,344 330,285 330,201C331,114 259,60 177,60C117,60 64,80 37,96l-22,-67C47,9 106,-11 177,-11C318,-11 419,84 419,211C419,292 377,349 326,377C286,402 237,412 186,412C162,412 148,411 133,409l25,167l248,0z"/>
<glyph unicode="&#x2085;" horiz-adv-x="308" d="M268,241l-202,0l-26,-191C55,52 75,54 97,54C178,54 210,21 210,-25C210,-73 167,-101 122,-101C84,-101 50,-89 33,-80l-14,-49C39,-141 80,-153 124,-153C216,-153 279,-97 279,-19C279,30 254,64 224,81C197,97 164,102 131,102C118,102 108,102 100,101l13,85l155,0z"/>
<glyph unicode="&#xF666;" horiz-adv-x="308" d="M268,654l-202,0l-26,-191C55,465 75,467 97,467C178,467 210,435 210,388C210,340 167,312 122,312C84,312 50,324 33,334l-14,-50C39,273 80,260 124,260C216,260 279,317 279,394C279,443 254,477 224,494C197,510 164,515 131,515C118,515 108,515 100,514l13,85l155,0z"/>
<glyph unicode="&#xF735;" horiz-adv-x="441" d="M36,-97C61,-107 106,-114 150,-114C299,-114 402,-33 402,89C402,132 386,173 356,202C304,252 219,265 136,263l29,150l217,0l11,72l-287,0l-51,-287C164,205 243,193 282,155C302,136 313,110 313,82C313,-2 235,-47 149,-47C111,-47 70,-41 47,-34z"/>
<glyph unicode="&#x2075;" horiz-adv-x="308" d="M268,830l-202,0l-26,-190C55,641 75,644 97,644C178,644 210,611 210,565C210,517 167,489 122,489C84,489 50,501 33,510l-14,-50C39,449 80,437 124,437C216,437 279,493 279,570C279,620 254,654 224,671C197,687 164,692 131,692C118,692 108,692 100,691l13,84l155,0z"/>
<glyph unicode="&#xF648;" horiz-adv-x="530" d="M78,-97C103,-107 148,-114 192,-114C341,-114 444,-33 444,89C444,132 428,173 398,202C346,252 261,265 178,263l29,150l217,0l11,72l-287,0l-51,-287C206,205 285,193 324,155C344,136 355,110 355,82C355,-2 277,-47 191,-47C153,-47 112,-41 89,-34z"/>
<glyph unicode="&#xFB02;" horiz-adv-x="523" d="M169,0l0,417l113,0l0,67l-113,0l0,25C169,586 200,653 291,653C325,653 348,648 363,640l0,-640l88,0l0,689C414,709 362,721 306,721C238,721 188,704 150,672C105,633 82,573 82,505l0,-21l-67,0l0,-67l67,0l0,-417z"/>
<glyph unicode="&#x192;" horiz-adv-x="513" d="M111,338l92,0l-23,-197C168,39 145,-16 83,-16C62,-16 44,-13 27,-5l-16,-62C28,-77 56,-84 89,-84C206,-84 247,4 263,134l24,204l128,0l0,64l-120,0l6,51C309,527 339,592 407,592C427,592 444,588 459,582l16,64C461,654 437,660 407,661C272,661 228,546 216,448l-6,-46l-99,0z"/>
<glyph unicode="&#xF64F;" horiz-adv-x="530" d="M128,282l92,0l-20,-175C188,5 164,-50 103,-50C82,-50 64,-47 47,-39l-16,-62C47,-111 75,-118 108,-118C226,-117 267,-30 282,100l22,182l128,0l0,58l-121,0l7,59C326,473 356,538 424,538C444,538 461,534 476,528l17,64C479,600 454,607 424,607C290,608 245,492 233,393l-6,-53l-99,0z"/>
<glyph unicode="4" horiz-adv-x="513" d="M400,0l0,178l91,0l0,68l-91,0l0,404l-95,0l-290,-415l0,-57l302,0l0,-178M104,246l0,2l159,221C281,499 297,527 317,565l3,0C318,531 317,497 317,463l0,-217z"/>
<glyph unicode="&#xF659;" horiz-adv-x="347" d="M272,0l0,102l55,0l0,50l-55,0l0,238l-79,0l-177,-247l0,-41l189,0l0,-102M205,152l-118,0l-1,1l86,119C184,290 194,308 206,331l2,0C207,311 205,290 205,268z"/>
<glyph unicode="&#xF63C;" horiz-adv-x="503" d="M396,0l0,178l91,0l0,68l-91,0l0,404l-95,0l-290,-415l0,-57l302,0l0,-178M100,246l0,2l159,221C277,499 293,527 313,565l3,0C314,531 313,497 313,463l0,-217z"/>
<glyph unicode="&#x2084;" horiz-adv-x="347" d="M272,-147l0,102l55,0l0,50l-55,0l0,238l-79,0l-177,-247l0,-41l189,0l0,-102M205,5l-118,0l-1,1l86,119C184,143 194,161 206,184l2,0C207,164 205,143 205,121z"/>
<glyph unicode="&#xF665;" horiz-adv-x="347" d="M272,266l0,102l55,0l0,50l-55,0l0,238l-79,0l-177,-247l0,-41l189,0l0,-102M205,418l-118,0l-1,1l86,119C184,556 194,574 206,597l2,0C207,577 205,556 205,534z"/>
<glyph unicode="&#xF734;" horiz-adv-x="502" d="M483,50l0,67l-91,0l0,375l-95,0l-279,-385l0,-57l292,0l0,-167l82,0l0,167M310,117l-204,0l-1,3l150,199C274,348 293,381 309,413l4,-1C310,380 310,350 310,318z"/>
<glyph unicode="&#x2074;" horiz-adv-x="347" d="M272,443l0,102l55,0l0,50l-55,0l0,237l-79,0l-177,-246l0,-41l189,0l0,-102M205,595l-118,0l-1,1l86,118C184,732 194,750 206,773l2,0C207,753 205,732 205,710z"/>
<glyph unicode="&#xF647;" horiz-adv-x="530" d="M497,50l0,67l-91,0l0,375l-95,0l-279,-385l0,-57l292,0l0,-167l82,0l0,167M324,117l-204,0l-1,3l150,199C288,348 307,381 323,413l4,-1C324,380 324,350 324,318z"/>
<glyph unicode="&#x2044;" horiz-adv-x="121" d="M-101,-11l380,672l-56,0l-380,-672z"/>
<glyph unicode="g" horiz-adv-x="559" d="M487,352C487,410 488,450 491,484l-78,0l-3,-73l-2,0C386,451 341,494 257,494C145,494 38,402 38,238C38,104 124,2 244,2C319,2 372,38 398,83l2,0l0,-53C400,-93 334,-140 244,-140C184,-140 134,-122 102,-101l-22,-68C119,-195 183,-209 241,-209C302,-209 370,-194 418,-151C464,-108 487,-41 487,71M399,206C399,191 397,174 392,159C374,103 325,69 270,69C176,69 127,148 127,243C127,355 187,426 271,426C336,426 378,384 394,332C398,321 399,308 399,293z"/>
<glyph unicode="&#xE005;" horiz-adv-x="559" d="M475,352C475,410 476,450 479,484l-78,0l-3,-73l-2,0C374,451 329,494 245,494C133,494 26,402 26,238C26,104 112,2 232,2C307,2 360,38 386,83l2,0l0,-53C388,-93 322,-140 232,-140C172,-140 122,-122 90,-101l-22,-68C107,-195 171,-209 229,-209C290,-209 358,-194 406,-151C452,-108 475,-41 475,71M387,206C387,191 385,174 380,159C362,103 313,69 258,69C164,69 115,148 115,243C115,355 175,426 259,426C324,426 366,384 382,332C386,321 387,308 387,293M205,567C207,595 215,612 231,612C243,612 254,605 274,594C294,583 313,573 335,573C382,573 404,608 403,674l-47,0C354,641 344,632 329,632C316,632 303,640 287,649C264,661 247,671 225,671C182,671 155,632 157,567z"/>
<glyph unicode="&#x3B3;" horiz-adv-x="464" d="M270,-198C269,-130 269,-55 267,2C267,11 267,18 272,26C365,167 443,327 443,451C443,463 443,476 441,484l-83,0C358,475 358,465 358,451C358,332 288,188 244,108l-3,0C210,256 137,418 94,484l-99,0C44,410 129,246 166,86C188,-10 186,-105 183,-198z"/>
<glyph unicode="&#x11F;" horiz-adv-x="559" d="M487,352C487,410 488,450 491,484l-78,0l-3,-73l-2,0C386,451 341,494 257,494C145,494 38,402 38,238C38,104 124,2 244,2C319,2 372,38 398,83l2,0l0,-53C400,-93 334,-140 244,-140C184,-140 134,-122 102,-101l-22,-68C119,-195 183,-209 241,-209C302,-209 370,-194 418,-151C464,-108 487,-41 487,71M399,206C399,191 397,174 392,159C374,103 325,69 270,69C176,69 127,148 127,243C127,355 187,426 271,426C336,426 378,384 394,332C398,321 399,308 399,293M148,682C148,619 184,557 272,557C347,557 396,607 396,682l-52,0C341,648 319,613 271,613C231,613 206,643 200,682z"/>
<glyph unicode="&#x11D;" horiz-adv-x="559" d="M487,352C487,410 488,450 491,484l-78,0l-3,-73l-2,0C386,451 341,494 257,494C145,494 38,402 38,238C38,104 124,2 244,2C319,2 372,38 398,83l2,0l0,-53C400,-93 334,-140 244,-140C184,-140 134,-122 102,-101l-22,-68C119,-195 183,-209 241,-209C302,-209 370,-194 418,-151C464,-108 487,-41 487,71M399,206C399,191 397,174 392,159C374,103 325,69 270,69C176,69 127,148 127,243C127,355 187,426 271,426C336,426 378,384 394,332C398,321 399,308 399,293M248,696l-94,-143l66,0l58,94l2,0l58,-94l67,0l-96,143z"/>
<glyph unicode="&#x123;" horiz-adv-x="559" d="M487,352C487,410 488,450 491,484l-78,0l-3,-73l-2,0C386,451 341,494 257,494C145,494 38,402 38,238C38,104 124,2 244,2C319,2 372,38 398,83l2,0l0,-53C400,-93 334,-140 244,-140C184,-140 134,-122 102,-101l-22,-68C119,-195 183,-209 241,-209C302,-209 370,-194 418,-151C464,-108 487,-41 487,71M399,206C399,191 397,174 392,159C374,103 325,69 270,69C176,69 127,148 127,243C127,355 187,426 271,426C336,426 378,384 394,332C398,321 399,308 399,293M339,709C276,705 209,677 209,606C209,574 228,547 248,535l64,13C293,562 277,584 277,607C277,647 313,666 355,672z"/>
<glyph unicode="&#x121;" horiz-adv-x="559" d="M487,352C487,410 488,450 491,484l-78,0l-3,-73l-2,0C386,451 341,494 257,494C145,494 38,402 38,238C38,104 124,2 244,2C319,2 372,38 398,83l2,0l0,-53C400,-93 334,-140 244,-140C184,-140 134,-122 102,-101l-22,-68C119,-195 183,-209 241,-209C302,-209 370,-194 418,-151C464,-108 487,-41 487,71M399,206C399,191 397,174 392,159C374,103 325,69 270,69C176,69 127,148 127,243C127,355 187,426 271,426C336,426 378,384 394,332C398,321 399,308 399,293M278,573C308,573 328,597 328,625C328,653 307,676 279,676C251,676 228,653 228,625C228,597 249,573 278,573z"/>
<glyph unicode="&#xDF;" horiz-adv-x="548" d="M161,0l0,456C161,598 204,652 281,652C343,652 385,612 385,543C385,527 382,512 377,500C318,472 287,428 287,377C287,321 323,284 365,244C400,211 419,183 419,141C419,95 385,57 321,57C291,57 263,64 237,77l-16,-67C250,-5 290,-11 327,-11C438,-11 506,54 506,148C506,220 465,262 425,302C394,334 374,355 374,389C374,423 400,451 445,470C457,487 469,518 469,552C469,662 386,721 291,721C230,721 182,704 145,670C100,630 73,566 73,452l0,-452z"/>
<glyph unicode="`" horiz-adv-x="300" d="M22,693l122,-143l62,0l-88,143z"/>
<glyph unicode="&#xF6CE;" horiz-adv-x="300" d="M-2,827l128,-116l71,0l-93,116z"/>
<glyph unicode="&gt;" horiz-adv-x="596" d="M530,295l-464,237l0,-69l394,-196l0,-2l-394,-196l0,-69l464,238z"/>
<glyph unicode="&#x2265;" horiz-adv-x="596" d="M530,292l0,59l-464,192l0,-66l382,-155l0,-2l-382,-154l0,-67M528,0l0,58l-462,0l0,-58z"/>
<glyph unicode="&#xAB;" horiz-adv-x="419" d="M232,436l-71,0l-132,-184l132,-184l72,0l-134,184M396,436l-71,0l-132,-184l132,-184l71,0l-133,184z"/>
<glyph unicode="&#xF6B6;" horiz-adv-x="419" d="M232,511l-71,0l-132,-184l132,-184l72,0l-134,184M396,511l-71,0l-132,-184l132,-184l71,0l-133,184z"/>
<glyph unicode="&#xBB;" horiz-adv-x="419" d="M157,252l-133,-184l70,0l133,184l-133,184l-70,0M320,252l-133,-184l70,0l133,184l-133,184l-71,0z"/>
<glyph unicode="&#xF6B7;" horiz-adv-x="419" d="M157,327l-133,-184l70,0l133,184l-133,184l-70,0M320,327l-133,-184l70,0l133,184l-133,184l-71,0z"/>
<glyph unicode="&#x2039;" horiz-adv-x="255" d="M232,436l-71,0l-132,-184l132,-184l71,0l-133,184z"/>
<glyph unicode="&#xF6B8;" horiz-adv-x="255" d="M232,511l-71,0l-132,-184l132,-184l71,0l-133,184z"/>
<glyph unicode="&#x203A;" horiz-adv-x="255" d="M157,252l-133,-184l70,0l133,184l-133,184l-70,0z"/>
<glyph unicode="&#xF6B9;" horiz-adv-x="255" d="M157,327l-133,-184l70,0l133,184l-133,184l-70,0z"/>
<glyph unicode="h" horiz-adv-x="555" d="M73,0l88,0l0,292C161,308 162,321 167,334C184,381 228,421 285,421C368,421 397,356 397,278l0,-278l88,0l0,288C485,454 381,494 316,494C283,494 252,485 226,470C199,455 177,432 163,407l-2,0l0,303l-88,0z"/>
<glyph unicode="&#x127;" horiz-adv-x="555" d="M485,0l0,288C485,454 381,494 316,494C283,494 252,485 226,470C199,455 177,432 163,407l-2,0l0,145l194,0l0,55l-194,0l0,103l-88,0l0,-103l-77,0l0,-55l77,0l0,-552l88,0l0,292C161,308 162,321 167,334C184,381 228,421 285,421C368,421 397,356 397,278l0,-278z"/>
<glyph unicode="&#x125;" horiz-adv-x="555" d="M73,0l88,0l0,292C161,308 162,321 167,334C184,381 228,421 285,421C368,421 397,356 397,278l0,-278l88,0l0,288C485,454 381,494 316,494C283,494 252,485 226,470C199,455 177,432 163,407l-2,0l0,303l-88,0M86,843l-102,-114l71,0l64,69l2,0l63,-69l74,0l-105,114z"/>
<glyph unicode="&#x2DD;" horiz-adv-x="300" d="M123,693l-79,-136l55,0l110,136M267,693l-79,-136l55,0l110,136z"/>
<glyph unicode="&#xF6CF;" horiz-adv-x="300" d="M117,827l-80,-112l64,0l111,112M264,827l-80,-112l64,0l111,112z"/>
<glyph unicode="-" horiz-adv-x="307" d="M30,302l0,-64l247,0l0,64z"/>
<glyph unicode="&#xF6BA;" horiz-adv-x="307" d="M30,377l0,-64l247,0l0,64z"/>
<glyph unicode="&#xF62B;" horiz-adv-x="191" d="M18,208l0,-48l155,0l0,48z"/>
<glyph unicode="&#xF6E5;" horiz-adv-x="191" d="M18,61l0,-48l155,0l0,48z"/>
<glyph unicode="&#xF630;" horiz-adv-x="191" d="M18,474l0,-48l155,0l0,48z"/>
<glyph unicode="&#xF6E6;" horiz-adv-x="191" d="M18,650l0,-48l155,0l0,48z"/>
<glyph unicode="i" horiz-adv-x="234" d="M161,0l0,484l-88,0l0,-484M117,675C84,675 62,650 62,620C62,590 83,566 115,566C150,566 171,590 171,620C171,651 149,675 117,675z"/>
<glyph unicode="&#xED;" horiz-adv-x="234" d="M161,0l0,484l-88,0l0,-484M156,693l-88,-143l62,0l122,143z"/>
<glyph unicode="&#x12D;" horiz-adv-x="234" d="M161,0l0,484l-88,0l0,-484M-4,682C-4,619 32,557 120,557C195,557 244,607 244,682l-52,0C189,648 167,613 119,613C79,613 54,643 48,682z"/>
<glyph unicode="&#xEE;" horiz-adv-x="234" d="M161,0l0,484l-88,0l0,-484M86,693l-94,-143l66,0l58,94l2,0l58,-94l67,0l-96,143z"/>
<glyph unicode="&#xEF;" horiz-adv-x="234" d="M161,0l0,484l-88,0l0,-484M24,570C54,570 74,594 74,621C74,650 53,672 26,672C-3,672 -25,649 -25,621C-25,594 -4,570 24,570M209,570C239,570 259,594 259,621C259,650 238,672 210,672C182,672 160,649 160,621C160,594 180,570 209,570z"/>
<glyph unicode="&#xEC;" horiz-adv-x="234" d="M161,0l0,484l-88,0l0,-484M-27,693l122,-143l62,0l-88,143z"/>
<glyph unicode="&#x133;" horiz-adv-x="477" d="M161,0l0,484l-88,0l0,-484M117,675C84,675 62,650 62,620C62,590 83,566 115,566C150,566 171,590 171,620C171,651 149,675 117,675M197,-211C245,-211 309,-195 348,-156C391,-112 406,-51 406,43l0,441l-88,0l0,-407C318,-39 308,-77 284,-105C263,-128 229,-139 188,-142M362,675C329,675 307,650 307,620C307,591 328,566 360,566C396,566 416,591 416,620C416,650 395,675 362,675z"/>
<glyph unicode="&#x12B;" horiz-adv-x="234" d="M161,0l0,484l-88,0l0,-484M5,643l0,-57l225,0l0,57z"/>
<glyph unicode="&#x221E;" horiz-adv-x="728" d="M541,117C629,117 693,185 693,263C693,350 634,411 550,411C468,411 415,356 364,305C316,353 261,411 186,411C99,411 35,343 35,263C35,178 94,117 178,117C260,117 313,172 364,222C412,175 467,117 541,117M543,176C484,176 443,228 404,263C442,302 488,352 545,352C594,352 630,314 630,263C630,216 592,176 543,176M184,176C134,176 98,213 98,263C98,311 136,352 186,352C244,352 285,299 324,263C286,224 240,176 184,176z"/>
<glyph unicode="&#x222B;" horiz-adv-x="316" d="M306,788C296,792 279,795 261,795C227,795 196,784 172,758C136,720 120,663 120,562C120,416 132,238 132,86C132,-10 118,-47 101,-68C89,-82 73,-89 57,-89C42,-89 30,-86 21,-83l-11,-57C19,-145 41,-150 63,-150C102,-150 137,-134 159,-102C183,-70 201,-12 201,86C201,237 189,411 189,557C189,646 198,689 218,714C229,729 247,736 264,736C275,736 286,734 294,732z"/>
<glyph unicode="&#x12F;" horiz-adv-x="234" d="M115,571C151,571 172,596 172,626C172,657 150,682 117,682C84,682 61,657 61,626C61,596 83,571 115,571M161,484l-88,0l0,-484C55,-27 25,-74 25,-123C25,-180 63,-210 118,-210C143,-210 178,-202 199,-187l-14,46C174,-146 159,-150 140,-150C111,-150 89,-132 89,-98C89,-62 115,-21 130,0l31,0z"/>
<glyph unicode="&#x3B9;" horiz-adv-x="236" d="M161,484l-88,0l0,-376C73,12 112,-11 164,-11C178,-11 194,-9 203,-6l5,64C170,56 161,74 161,117z"/>
<glyph unicode="&#x3CA;" horiz-adv-x="236" d="M28,557C58,557 77,581 77,608C77,636 56,658 29,658C1,658 -21,635 -21,608C-21,581 -1,557 28,557M211,557C242,557 261,581 261,608C261,636 240,658 213,658C184,658 163,635 163,608C163,581 183,557 211,557M161,484l-88,0l0,-375C73,12 112,-11 164,-11C178,-11 194,-9 203,-6l5,64C170,56 161,74 161,117z"/>
<glyph unicode="&#x390;" horiz-adv-x="236" d="M161,484l-87,0l0,-376C74,12 112,-11 164,-11C178,-11 193,-9 202,-6l6,64C170,56 161,74 161,117M107,696l-21,-156l47,0l49,156M4,560C32,560 50,582 50,607C50,633 31,653 6,653C-20,653 -41,632 -41,607C-41,582 -22,560 4,560M245,560C274,560 292,582 292,607C292,633 273,653 247,653C221,653 201,632 201,607C201,582 220,560 245,560z"/>
<glyph unicode="&#x3AF;" horiz-adv-x="236" d="M133,686l-53,-143l59,0l84,143M161,484l-88,0l0,-376C73,12 112,-11 164,-11C178,-11 194,-9 203,-6l5,64C170,56 161,74 161,117z"/>
<glyph unicode="&#x129;" horiz-adv-x="234" d="M161,0l0,484l-88,0l0,-484M42,567C44,595 52,612 68,612C80,612 91,606 111,595C132,583 151,573 173,573C220,573 242,608 241,674l-47,0C192,641 182,632 167,632C154,632 140,640 124,649C101,661 84,671 62,671C19,671 -8,632 -6,567z"/>
<glyph unicode="j" horiz-adv-x="243" d="M-36,-211C11,-211 75,-195 114,-156C157,-112 172,-51 172,43l0,441l-88,0l0,-407C84,-39 74,-77 50,-104C29,-128 -5,-139 -46,-142M128,675C95,675 73,650 73,620C73,591 94,566 126,566C162,566 182,591 182,620C182,650 161,675 128,675z"/>
<glyph unicode="&#x135;" horiz-adv-x="243" d="M-36,-211C11,-211 75,-195 114,-156C157,-112 172,-51 172,43l0,441l-88,0l0,-407C84,-39 74,-77 50,-104C29,-128 -5,-139 -46,-142M90,686l-94,-143l66,0l58,94l2,0l58,-94l67,0l-96,143z"/>
<glyph unicode="k" horiz-adv-x="469" d="M160,710l-87,0l0,-710l87,0l0,182l45,50l166,-232l108,0l-213,285l186,199l-105,0l-143,-167C190,300 174,279 162,262l-2,0z"/>
<glyph unicode="&#x3BA;" horiz-adv-x="493" d="M250,262C335,343 412,417 480,480l0,4l-103,0C320,427 252,351 165,269l-4,0l0,133C161,442 156,473 147,484l-84,0C70,467 74,418 74,379l0,-379l87,0l0,215l9,0C215,214 260,167 309,103l76,-103l102,0l-88,121C350,186 298,248 250,259z"/>
<glyph unicode="&#x137;" horiz-adv-x="469" d="M160,710l-87,0l0,-710l87,0l0,182l45,50l166,-232l108,0l-213,285l186,199l-105,0l-143,-167C190,300 174,279 162,262l-2,0M177,-222C239,-218 306,-188 306,-115C306,-82 286,-54 266,-41l-65,-14C219,-69 235,-92 235,-116C235,-155 199,-175 160,-181z"/>
<glyph unicode="&#x138;" horiz-adv-x="469" d="M160,484l-87,0l0,-484l87,0l0,182l45,50l166,-232l108,0l-213,285l186,199l-105,0l-143,-167C190,300 174,279 162,262l-2,0z"/>
<glyph unicode="l" horiz-adv-x="236" d="M73,0l88,0l0,710l-88,0z"/>
<glyph unicode="&#x13A;" horiz-adv-x="236" d="M73,0l88,0l0,710l-88,0M154,856l-93,-117l71,0l128,117z"/>
<glyph unicode="&#x3BB;" horiz-adv-x="472" d="M364,0l93,0l-185,492C219,629 175,720 80,720C68,720 54,719 46,716l-8,-68C44,649 50,649 55,649C114,649 150,582 181,497C186,485 187,477 187,471C187,466 186,459 182,448l-175,-448l91,0l100,280C209,313 222,350 229,382l4,0C244,343 254,310 266,277z"/>
<glyph unicode="&#x13E;" horiz-adv-x="244" d="M73,0l88,0l0,710l-88,0M239,522C254,535 304,571 304,644C304,679 286,708 268,719l-62,-14C222,690 236,665 236,640C236,599 216,570 201,551z"/>
<glyph unicode="&#x13C;" horiz-adv-x="236" d="M73,0l88,0l0,710l-88,0M52,-222C114,-218 181,-188 181,-115C181,-82 161,-54 141,-41l-65,-14C94,-69 110,-92 110,-116C110,-155 74,-175 35,-181z"/>
<glyph unicode="&#x140;" horiz-adv-x="272" d="M73,0l88,0l0,710l-88,0M252,341C280,341 299,364 299,391C299,419 279,441 253,441C226,441 205,418 205,391C205,364 225,341 252,341z"/>
<glyph unicode="&lt;" horiz-adv-x="596" d="M66,239l464,-239l0,69l-391,196l0,2l391,196l0,69l-464,-239z"/>
<glyph unicode="&#x2264;" horiz-adv-x="596" d="M530,99l0,67l-382,154l0,2l382,155l0,66l-464,-192l0,-59M530,0l0,58l-462,0l0,-58z"/>
<glyph unicode="&#xAC;" horiz-adv-x="596" d="M40,399l0,-60l452,0l0,-218l64,0l0,278z"/>
<glyph unicode="&#x25CA;" horiz-adv-x="522" d="M477,324l-182,356l-69,0l-181,-356l181,-355l69,0M401,323l-128,-264C270,52 266,44 263,36l-2,0C259,44 255,52 251,59l-131,267l128,264C252,596 256,605 259,613l2,0C263,605 267,596 271,590z"/>
<glyph unicode="&#x142;" horiz-adv-x="242" d="M165,0l0,355l71,61l0,70l-71,-61l0,285l-88,0l0,-353l-68,-58l0,-69l68,58l0,-288z"/>
<glyph unicode="m" horiz-adv-x="834" d="M73,0l86,0l0,291C159,306 161,322 166,334C180,378 221,422 275,422C342,422 376,367 376,290l0,-290l86,0l0,299C462,315 465,330 469,343C485,385 523,422 574,422C644,422 679,367 679,273l0,-273l86,0l0,284C765,452 670,494 605,494C559,494 528,482 499,460C479,445 459,425 444,397l-2,0C421,454 371,494 306,494C225,494 180,451 153,405l-3,0l-4,79l-77,0C71,444 73,404 73,353z"/>
<glyph unicode="&#xE006;" horiz-adv-x="834" d="M73,0l86,0l0,291C159,306 161,322 166,334C180,378 221,422 275,422C342,422 376,367 376,290l0,-290l86,0l0,299C462,315 465,330 469,343C485,385 523,422 573,422C644,422 678,367 678,273l0,-273l86,0l0,284C764,452 669,494 604,494C559,494 528,482 498,460C478,445 459,425 444,397l-2,0C421,454 371,494 306,494C225,494 180,451 153,405l-3,0l-4,79l-77,0C71,444 73,404 73,353M385,693l-94,-143l66,0l58,94l2,0l58,-94l67,0l-96,143z"/>
<glyph unicode="&#xAF;" horiz-adv-x="300" d="M38,643l0,-57l225,0l0,57z"/>
<glyph unicode="&#xF6D0;" horiz-adv-x="300" d="M31,788l0,-55l240,0l0,55z"/>
<glyph unicode="&#x2212;" horiz-adv-x="596" d="M40,297l0,-60l516,0l0,60z"/>
<glyph unicode="&#xB5;" horiz-adv-x="553" d="M403,75C411,13 446,-11 489,-11C504,-11 509,-10 520,-7l7,64C491,59 481,80 481,133l0,351l-88,0l0,-296C393,171 390,155 385,142C369,102 328,61 270,61C192,61 161,123 161,198l0,286l-88,0l0,-503C73,-97 77,-168 87,-198l79,0C157,-158 155,-69 155,-15l0,59C176,7 217,-9 261,-9C333,-9 380,37 400,75z"/>
<glyph unicode="&#xD7;" horiz-adv-x="596" d="M40,482l214,-219l-214,-219l44,-44l214,219l214,-219l44,44l-215,219l215,219l-44,44l-214,-219l-214,219z"/>
<glyph unicode="n" horiz-adv-x="555" d="M73,0l88,0l0,291C161,306 163,321 167,332C183,381 228,422 285,422C368,422 397,357 397,279l0,-279l88,0l0,288C485,454 381,494 314,494C234,494 178,449 154,404l-2,0l-5,80l-78,0C72,444 73,404 73,353z"/>
<glyph unicode="&#xE007;" horiz-adv-x="555" d="M246,693l-94,-143l66,0l58,94l2,0l58,-94l67,0l-96,143M73,0l88,0l0,291C161,306 163,321 167,332C183,381 228,422 285,422C368,422 397,357 397,279l0,-279l88,0l0,288C485,454 381,494 314,494C234,494 178,449 154,404l-2,0l-5,80l-78,0C72,444 73,404 73,353z"/>
<glyph unicode="&#x144;" horiz-adv-x="555" d="M73,0l88,0l0,291C161,306 163,321 167,332C183,381 228,422 285,422C368,422 397,357 397,279l0,-279l88,0l0,288C485,454 381,494 314,494C234,494 178,449 154,404l-2,0l-5,80l-78,0C72,444 73,404 73,353M318,693l-88,-143l62,0l122,143z"/>
<glyph unicode="&#x149;" horiz-adv-x="555" d="M73,0l88,0l0,291C161,306 163,321 167,332C183,381 228,422 285,422C368,422 397,357 397,279l0,-279l88,0l0,288C485,454 381,494 314,494C234,494 178,449 154,404l-2,0l-5,80l-78,0C72,444 73,404 73,353M56,536C72,548 123,584 123,651C123,686 104,713 88,723l-64,-17C41,692 55,670 55,647C55,609 35,584 18,565z"/>
<glyph unicode="&#x148;" horiz-adv-x="555" d="M73,0l88,0l0,291C161,306 163,321 167,332C183,381 228,422 285,422C368,422 397,357 397,279l0,-279l88,0l0,288C485,454 381,494 314,494C234,494 178,449 154,404l-2,0l-5,80l-78,0C72,444 73,404 73,353M310,550l94,143l-66,0l-59,-95l-2,0l-59,95l-67,0l96,-143z"/>
<glyph unicode="&#x146;" horiz-adv-x="555" d="M73,0l88,0l0,291C161,306 163,321 167,332C183,381 228,422 285,422C368,422 397,357 397,279l0,-279l88,0l0,288C485,454 381,494 314,494C234,494 178,449 154,404l-2,0l-5,80l-78,0C72,444 73,404 73,353M221,-220C283,-216 350,-186 350,-113C350,-80 330,-52 310,-39l-65,-14C263,-67 279,-90 279,-114C279,-153 243,-173 204,-179z"/>
<glyph unicode="9" horiz-adv-x="513" d="M96,-10C117,-11 145,-10 177,-5C247,3 316,33 366,82C430,144 478,244 478,386C478,554 396,661 263,661C130,661 41,553 41,430C41,319 116,231 232,231C298,231 350,256 386,300l3,0C377,224 346,167 303,128C266,92 218,72 167,65C137,62 115,60 96,62M255,594C348,594 389,509 389,398C389,383 386,374 381,365C358,326 312,297 253,297C177,297 128,354 128,435C128,528 181,594 255,594z"/>
<glyph unicode="&#xF65E;" horiz-adv-x="327" d="M58,-4C69,-5 87,-4 105,-2C155,2 202,19 235,50C275,87 303,147 303,230C303,326 253,395 164,395C81,395 23,331 23,257C23,187 73,137 144,137C183,137 213,152 233,175l2,0C228,135 210,104 184,83C161,64 131,53 100,50C84,48 69,48 58,49M160,345C214,345 236,298 236,241C236,233 235,226 232,222C219,201 194,185 161,185C117,185 90,218 90,260C90,309 120,345 160,345z"/>
<glyph unicode="&#xF641;" horiz-adv-x="517" d="M96,-10C117,-11 145,-10 177,-5C247,3 316,33 366,82C430,144 478,244 478,386C478,554 396,661 263,661C130,661 41,553 41,430C41,319 116,231 232,231C298,231 350,256 386,300l3,0C377,224 346,167 303,128C266,92 218,72 167,65C137,62 115,60 96,62M255,594C348,594 389,509 389,398C389,383 386,374 381,365C358,326 312,297 253,297C177,297 128,354 128,435C128,528 181,594 255,594z"/>
<glyph unicode="&#x2089;" horiz-adv-x="327" d="M58,-151C69,-152 87,-151 105,-149C155,-145 202,-128 235,-97C275,-60 303,0 303,83C303,179 253,248 164,248C81,248 23,184 23,110C23,40 73,-10 144,-10C183,-10 213,5 233,28l2,0C228,-12 210,-43 184,-64C161,-83 131,-94 100,-97C84,-99 69,-99 58,-98M160,198C214,198 236,151 236,94C236,86 235,79 232,75C219,54 194,38 161,38C117,38 90,71 90,113C90,162 120,198 160,198z"/>
<glyph unicode="&#xF66A;" horiz-adv-x="327" d="M58,262C69,261 87,262 105,264C155,268 202,285 235,316C275,353 303,413 303,496C303,592 253,661 164,661C81,661 23,597 23,523C23,453 73,403 144,403C183,403 213,418 233,441l2,0C228,401 210,370 184,349C161,330 131,319 100,316C84,314 69,314 58,315M160,611C214,611 236,564 236,507C236,499 235,492 232,488C219,467 194,451 161,451C117,451 90,484 90,526C90,575 120,611 160,611z"/>
<glyph unicode="&#xF739;" horiz-adv-x="520" d="M82,-114C312,-107 472,34 472,257C472,411 378,498 259,498C137,498 43,406 43,284C43,164 128,93 229,93C297,93 352,127 373,160l2,0C347,42 247,-42 75,-49M253,155C187,155 130,198 130,291C130,385 195,430 255,430C326,430 385,370 385,280C385,255 379,233 369,220C350,185 303,155 253,155z"/>
<glyph unicode="&#x2079;" horiz-adv-x="327" d="M58,438C69,438 87,438 105,440C155,444 202,461 235,492C275,529 303,589 303,672C303,768 253,837 164,837C81,837 23,773 23,699C23,629 73,579 144,579C183,579 213,594 233,617l2,0C228,577 210,546 184,525C161,506 131,495 100,492C84,490 69,490 58,491M160,787C214,787 236,740 236,683C236,675 235,668 232,664C219,643 194,627 161,627C117,627 90,660 90,702C90,751 120,787 160,787z"/>
<glyph unicode="&#xF64C;" horiz-adv-x="530" d="M89,-114C319,-107 479,34 479,257C479,411 385,498 266,498C144,498 50,406 50,284C50,164 135,93 236,93C304,93 359,127 380,160l2,0C354,42 254,-42 82,-49M260,155C194,155 137,198 137,291C137,385 202,430 262,430C333,430 392,370 392,280C392,255 386,233 376,220C357,185 310,155 260,155z"/>
<glyph unicode="&#x2260;" horiz-adv-x="596" d="M556,140l0,60l-271,0l88,138l183,0l0,60l-145,0l79,122l-65,0l-76,-122l-309,0l0,-60l271,0l-89,-138l-182,0l0,-60l144,0l-79,-122l65,0l76,122z"/>
<glyph unicode="&#xF1;" horiz-adv-x="555" d="M73,0l88,0l0,291C161,306 163,321 167,332C183,381 228,422 285,422C368,422 397,357 397,279l0,-279l88,0l0,288C485,454 381,494 314,494C234,494 178,449 154,404l-2,0l-5,80l-78,0C72,444 73,404 73,353M203,567C205,595 213,612 229,612C241,612 252,605 272,594C292,583 311,573 333,573C380,573 402,608 401,674l-47,0C352,641 342,632 327,632C314,632 301,640 285,649C262,661 245,671 223,671C180,671 153,632 155,567z"/>
<glyph unicode="&#x3BD;" horiz-adv-x="469" d="M4,484l177,-484l83,0C352,147 444,311 444,449C444,461 443,474 441,484l-82,0C360,470 360,456 360,439C360,327 275,164 235,86l-4,0C218,128 206,169 190,213l-93,271z"/>
<glyph unicode="#" horiz-adv-x="497" d="M188,255l19,145l104,0l-19,-145M154,0l25,196l104,0l-26,-196l60,0l26,196l95,0l0,59l-86,0l18,145l91,0l0,59l-82,0l25,191l-59,0l-25,-191l-105,0l26,191l-59,0l-26,-191l-95,0l0,-59l87,0l-19,-145l-92,0l0,-59l83,0l-26,-196z"/>
<glyph unicode="&#xF650;" horiz-adv-x="530" d="M205,226l19,145l104,0l-19,-145M174,-3l22,170l104,0l-23,-170l61,0l22,170l95,0l0,59l-86,0l18,145l91,0l0,59l-82,0l22,165l-59,0l-22,-165l-105,0l22,165l-59,0l-22,-165l-95,0l0,-59l87,0l-19,-145l-92,0l0,-59l83,0l-23,-170z"/>
<glyph unicode="o" horiz-adv-x="549" d="M278,494C145,494 38,399 38,238C38,85 140,-11 270,-11C386,-11 511,67 511,246C511,393 417,494 278,494M276,428C380,428 421,325 421,243C421,134 358,55 274,55C188,55 128,135 128,241C128,332 173,428 276,428z"/>
<glyph unicode="&#xF3;" horiz-adv-x="549" d="M278,494C145,494 38,399 38,238C38,85 140,-11 270,-11C386,-11 511,67 511,246C511,393 417,494 278,494M276,428C380,428 421,325 421,243C421,134 358,55 274,55C188,55 128,135 128,241C128,332 173,428 276,428M309,693l-87,-143l62,0l122,143z"/>
<glyph unicode="&#x14F;" horiz-adv-x="549" d="M278,494C145,494 38,399 38,238C38,85 140,-11 270,-11C386,-11 511,67 511,246C511,393 417,494 278,494M276,428C380,428 421,325 421,243C421,134 358,55 274,55C188,55 128,135 128,241C128,332 173,428 276,428M150,682C150,619 186,557 274,557C349,557 398,607 398,682l-52,0C343,648 321,613 273,613C233,613 208,643 202,682z"/>
<glyph unicode="&#xF4;" horiz-adv-x="549" d="M278,494C145,494 38,399 38,238C38,85 140,-11 270,-11C386,-11 511,67 511,246C511,393 417,494 278,494M276,428C380,428 421,325 421,243C421,134 358,55 274,55C188,55 128,135 128,241C128,332 173,428 276,428M243,693l-94,-143l66,0l57,94l2,0l59,-94l67,0l-96,143z"/>
<glyph unicode="&#xF6;" horiz-adv-x="549" d="M278,494C145,494 38,399 38,238C38,85 140,-11 270,-11C386,-11 511,67 511,246C511,393 417,494 278,494M276,428C380,428 421,325 421,243C421,134 358,55 274,55C188,55 128,135 128,241C128,332 173,428 276,428M181,570C211,570 231,594 231,621C231,650 210,672 183,672C154,672 132,649 132,621C132,594 153,570 181,570M366,570C396,570 416,594 416,621C416,650 395,672 367,672C339,672 317,649 317,621C317,594 337,570 366,570z"/>
<glyph unicode="&#x153;" horiz-adv-x="863" d="M824,227C825,236 826,251 826,268C826,353 786,494 631,494C556,494 490,456 454,379l-2,0C422,452 352,494 270,494C140,494 38,396 38,239C38,86 136,-11 264,-11C338,-11 415,25 451,103l2,0C491,24 561,-11 645,-11C698,-11 763,0 802,22l-17,63C753,71 716,58 656,58C563,58 495,117 495,227M270,428C371,428 413,334 413,242C413,131 356,55 271,55C188,55 128,136 128,241C128,324 165,428 270,428M494,290C500,350 537,431 624,431C720,431 743,344 742,290z"/>
<glyph unicode="&#x2DB;" horiz-adv-x="300" d="M123,4C99,-22 63,-69 63,-119C63,-175 101,-205 157,-205C181,-205 216,-197 237,-182l-14,46C211,-142 195,-146 177,-146C147,-146 127,-127 127,-96C127,-58 165,-15 180,4z"/>
<glyph unicode="&#xEFF1;" horiz-adv-x="300" d="M123,4C99,-22 63,-69 63,-119C63,-175 101,-205 157,-205C181,-205 216,-197 237,-182l-14,46C211,-142 195,-146 177,-146C147,-146 127,-127 127,-96C127,-58 165,-15 180,4z"/>
<glyph unicode="&#xF2;" horiz-adv-x="549" d="M278,494C145,494 38,399 38,238C38,85 140,-11 270,-11C386,-11 511,67 511,246C511,393 417,494 278,494M276,428C380,428 421,325 421,243C421,134 358,55 274,55C188,55 128,135 128,241C128,332 173,428 276,428M145,693l122,-143l62,0l-88,143z"/>
<glyph unicode="&#x1A1;" horiz-adv-x="553" d="M276,428C381,429 422,326 422,244C421,134 358,55 274,55C188,55 128,135 128,241C128,332 173,428 276,428M470,553C480,536 487,516 487,495C486,469 472,455 446,455C415,455 385,474 361,481C334,489 308,494 278,494C145,494 38,399 38,238C38,85 140,-11 270,-11C386,-11 511,67 511,246C511,310 493,365 461,406C522,403 554,439 554,492C554,520 547,545 537,565z"/>
<glyph unicode="&#x151;" horiz-adv-x="549" d="M278,494C145,494 38,399 38,238C38,85 140,-11 270,-11C386,-11 511,67 511,246C511,393 417,494 278,494M276,428C380,428 421,325 421,243C421,134 358,55 274,55C188,55 128,135 128,241C128,332 173,428 276,428M238,693l-79,-136l55,0l110,136M382,693l-79,-136l55,0l110,136z"/>
<glyph unicode="&#x14D;" horiz-adv-x="549" d="M278,494C145,494 38,399 38,238C38,85 140,-11 270,-11C386,-11 511,67 511,246C511,393 417,494 278,494M276,428C380,428 421,325 421,243C421,134 358,55 274,55C188,55 128,135 128,241C128,332 173,428 276,428M162,643l0,-57l225,0l0,57z"/>
<glyph unicode="&#x3C9;" horiz-adv-x="694" d="M388,363l-83,0l2,-192C308,111 272,62 227,62C181,62 124,114 124,249C124,352 159,439 204,488l0,2l-82,0C80,448 38,356 38,247C38,62 131,-11 215,-11C275,-11 320,22 343,74l4,0C367,22 413,-11 473,-11C565,-11 656,74 656,255C656,366 616,454 573,490l-83,0l0,-2C536,443 570,352 570,257C570,126 519,62 469,62C421,62 385,110 386,172z"/>
<glyph unicode="&#x3CE;" horiz-adv-x="694" d="M360,686l-53,-143l58,0l84,143M388,363l-83,0l2,-192C308,111 272,62 227,62C181,62 124,114 124,249C124,352 159,439 204,488l0,2l-82,0C80,448 38,356 38,247C38,62 131,-11 215,-11C275,-11 320,22 343,74l4,0C367,22 413,-11 473,-11C565,-11 656,74 656,255C656,366 616,454 573,490l-83,0l0,-2C536,443 570,352 570,257C570,126 519,62 469,62C421,62 385,110 386,172z"/>
<glyph unicode="&#x3BF;" horiz-adv-x="549" d="M270,-11C386,-11 511,67 511,246C511,393 417,494 278,494C145,494 38,399 38,238C38,85 140,-11 270,-11M274,55C188,55 128,135 128,241C128,332 173,428 276,428C380,428 421,325 421,243C421,134 358,55 274,55z"/>
<glyph unicode="&#x3CC;" horiz-adv-x="549" d="M289,686l-53,-143l58,0l83,143M270,-11C386,-11 511,67 511,246C511,393 417,494 278,494C145,494 38,399 38,238C38,85 140,-11 270,-11M274,55C188,55 128,135 128,241C128,332 173,428 276,428C380,428 421,325 421,243C421,134 358,55 274,55z"/>
<glyph unicode="1" horiz-adv-x="513" d="M236,0l85,0l0,650l-75,0l-142,-76l17,-67l113,61l2,0z"/>
<glyph unicode="&#xF656;" horiz-adv-x="244" d="M177,0l0,390l-61,0l-94,-44l11,-52l72,35l2,0l0,-329z"/>
<glyph unicode="&#xF6DC;" horiz-adv-x="326" d="M151,0l85,0l0,650l-75,0l-142,-76l17,-67l113,61l2,0z"/>
<glyph unicode="&#x2081;" horiz-adv-x="244" d="M177,-147l0,390l-61,0l-94,-44l11,-52l72,35l2,0l0,-329z"/>
<glyph unicode="&#xF662;" horiz-adv-x="244" d="M177,266l0,390l-61,0l-94,-44l11,-52l72,35l2,0l0,-329z"/>
<glyph unicode="&#xF731;" horiz-adv-x="362" d="M263,0l0,485l-73,0l-164,-73l16,-66l135,62l2,0l0,-408z"/>
<glyph unicode="&#xF644;" horiz-adv-x="530" d="M365,0l0,485l-73,0l-214,-92l15,-65l186,83l2,0l0,-411z"/>
<glyph unicode="&#xBD;" horiz-adv-x="759" d="M184,266l0,390l-61,0l-94,-44l11,-52l72,35l2,0l0,-329M175,-11l379,672l-56,0l-379,-672M440,0l270,0l0,55l-170,0l0,2l30,28C646,153 703,207 703,283C703,336 665,395 571,395C520,395 475,376 448,354l21,-46C488,322 518,339 553,339C605,339 629,308 629,269C629,218 586,172 503,95l-63,-58z"/>
<glyph unicode="&#xBC;" horiz-adv-x="759" d="M198,266l0,390l-61,0l-94,-44l11,-52l72,35l2,0l0,-329M195,-11l379,672l-56,0l-380,-672M663,0l0,103l60,0l0,49l-60,0l0,243l-73,0l-193,-253l0,-39l200,0l0,-103M597,152l-127,0l-1,1l96,125C576,295 585,312 598,333l2,0C599,315 597,294 597,270z"/>
<glyph unicode="&#xB9;" horiz-adv-x="244" d="M177,443l0,390l-61,0l-94,-45l11,-52l72,35l2,0l0,-328z"/>
<glyph unicode="&#xAA;" horiz-adv-x="346" d="M304,266C301,290 299,317 299,344l0,107C299,523 272,591 172,591C129,591 87,579 58,558l16,-42C97,533 127,542 159,542C225,542 234,496 234,480l0,-10C105,473 33,428 33,357C33,304 70,261 136,261C183,261 218,284 238,308l2,0l5,-42M235,372C235,366 232,355 225,346C213,326 187,309 157,309C126,309 99,327 99,361C99,417 172,429 235,427z"/>
<glyph unicode="&#xBA;" horiz-adv-x="355" d="M180,591C93,591 18,527 18,423C18,325 88,261 177,261C254,261 336,313 337,428C337,522 276,591 180,591M176,541C243,541 270,476 270,426C270,357 231,311 178,311C128,311 85,359 85,424C85,478 113,541 176,541z"/>
<glyph unicode="&#xF8;" horiz-adv-x="549" d="M277,494C144,494 38,399 38,239C38,159 67,96 113,52l-42,-60l37,-30l44,61C187,0 230,-11 275,-11C388,-11 511,68 511,245C511,321 484,385 437,430l43,63l-39,27l-42,-60C363,483 320,494 277,494M161,119l-2,1C134,155 124,198 124,241C124,328 167,428 274,428C309,428 337,418 359,399M389,361l2,0C417,322 425,276 425,242C425,134 364,55 272,55C242,55 215,63 191,83z"/>
<glyph unicode="&#x1FF;" horiz-adv-x="549" d="M277,494C144,494 38,399 38,239C38,159 67,96 113,52l-42,-60l37,-30l44,61C187,0 230,-11 275,-11C388,-11 511,68 511,245C511,321 484,385 437,430l43,63l-39,27l-42,-60C363,483 320,494 277,494M161,119l-2,1C134,155 124,198 124,241C124,328 167,428 274,428C309,428 337,418 359,399M389,361l2,0C417,322 425,276 425,242C425,134 364,55 272,55C242,55 215,63 191,83M315,693l-88,-143l62,0l122,143z"/>
<glyph unicode="&#xF5;" horiz-adv-x="549" d="M278,494C145,494 38,399 38,238C38,85 140,-11 270,-11C386,-11 511,67 511,246C511,393 417,494 278,494M276,428C380,428 421,325 421,243C421,134 358,55 274,55C188,55 128,135 128,241C128,332 173,428 276,428M199,567C201,595 209,612 225,612C237,612 248,606 268,594C289,583 308,573 330,573C377,573 399,608 398,674l-47,0C349,641 339,632 324,632C311,632 298,640 282,649C258,661 241,671 219,671C176,671 149,632 151,567z"/>
<glyph unicode="p" horiz-adv-x="569" d="M73,-198l87,0l0,263l2,0C191,17 247,-11 311,-11C425,-11 532,75 532,249C532,395 444,494 326,494C247,494 189,460 154,401l-2,0l-5,83l-78,0C71,438 73,388 73,326M160,281C160,292 163,305 166,316C182,382 239,424 299,424C392,424 443,341 443,245C443,134 389,58 296,58C233,58 180,100 164,161C161,172 160,184 160,197z"/>
<glyph unicode="&#xB6;" horiz-adv-x="512" d="M293,-49l0,665l71,0l0,-665l62,0l0,717C401,673 362,676 309,676C90,676 33,559 34,455C36,326 145,265 224,265l7,0l0,-314z"/>
<glyph unicode="(" horiz-adv-x="284" d="M195,694C132,610 65,481 64,285C64,90 132,-38 195,-121l68,0C193,-21 138,106 138,284C138,466 190,595 263,694z"/>
<glyph unicode="&#xF6AE;" horiz-adv-x="284" d="M195,734C132,650 65,521 64,325C64,130 132,2 195,-81l68,0C193,19 138,146 138,324C138,506 190,635 263,734z"/>
<glyph unicode="&#xF62C;" horiz-adv-x="180" d="M117,425C81,377 40,299 40,182C40,67 81,-10 117,-59l51,0C129,0 96,76 96,182C96,289 128,368 168,425z"/>
<glyph unicode="&#x208D;" horiz-adv-x="180" d="M117,278C81,230 40,152 40,35C40,-80 81,-157 117,-206l51,0C129,-147 96,-71 96,35C96,142 128,221 168,278z"/>
<glyph unicode="&#xF631;" horiz-adv-x="180" d="M117,691C81,643 40,565 40,448C40,333 81,256 117,207l51,0C129,266 96,342 96,448C96,555 128,634 168,691z"/>
<glyph unicode="&#x207D;" horiz-adv-x="180" d="M117,868C81,820 40,742 40,625C40,510 81,433 117,384l51,0C129,443 96,519 96,625C96,732 128,811 168,868z"/>
<glyph unicode=")" horiz-adv-x="284" d="M88,-121C151,-37 218,91 219,287C219,483 151,612 88,694l-68,0C91,594 145,467 145,287C145,107 90,-22 20,-121z"/>
<glyph unicode="&#xF6AF;" horiz-adv-x="284" d="M88,-81C151,3 218,131 219,327C219,523 151,652 88,734l-68,0C91,634 145,507 145,327C145,147 90,18 20,-81z"/>
<glyph unicode="&#xF62D;" horiz-adv-x="180" d="M64,-59C100,-9 141,68 141,183C141,300 100,377 64,425l-51,0C53,367 85,289 85,183C85,77 52,0 13,-59z"/>
<glyph unicode="&#x208E;" horiz-adv-x="180" d="M64,-206C100,-156 141,-79 141,36C141,153 100,230 64,278l-51,0C53,220 85,142 85,36C85,-70 52,-147 13,-206z"/>
<glyph unicode="&#xF632;" horiz-adv-x="180" d="M64,207C100,257 141,334 141,449C141,566 100,643 64,691l-51,0C53,633 85,555 85,449C85,343 52,266 13,207z"/>
<glyph unicode="&#x207E;" horiz-adv-x="180" d="M64,384C100,434 141,511 141,626C141,743 100,820 64,868l-51,0C53,810 85,732 85,626C85,520 52,443 13,384z"/>
<glyph unicode="&#x2202;" horiz-adv-x="375" d="M86,614C112,633 157,654 223,654C317,654 411,565 411,389C411,379 411,366 410,356l-1,0C387,395 329,443 245,443C121,443 26,335 26,199C26,93 89,-11 225,-11C366,-11 495,118 495,373C495,602 370,727 231,727C146,727 91,697 58,673M233,61C162,61 114,114 114,201C114,299 179,373 259,373C329,373 382,326 400,277C386,163 322,61 233,61z"/>
<glyph unicode="%" horiz-adv-x="792" d="M188,661C100,661 30,588 30,458C31,328 100,263 182,263C266,263 337,331 337,468C337,591 278,661 188,661M183,608C245,608 268,543 268,463C268,378 242,316 184,316C129,316 97,379 99,462C99,543 129,608 183,608M231,-12l383,674l-56,0l-383,-674M612,392C524,392 454,319 454,189C455,58 524,-7 606,-7C690,-7 761,61 761,198C761,322 702,392 612,392M607,339C669,339 692,273 692,194C692,108 666,46 608,46C553,46 521,109 523,192C523,274 553,339 607,339z"/>
<glyph unicode="&#xF642;" horiz-adv-x="818" d="M186,603C98,603 28,530 28,400C29,270 98,204 180,204C264,204 335,272 335,409C335,533 276,603 186,603M181,550C243,550 266,484 266,405C266,319 240,257 182,257C127,257 96,321 97,403C97,485 127,550 181,550M261,-12l351,620l-56,0l-351,-620M641,392C553,392 483,319 483,189C484,58 553,-7 635,-7C719,-7 790,61 790,198C790,322 731,392 641,392M636,339C698,339 721,273 721,194C721,108 695,46 637,46C582,46 551,109 552,192C552,274 582,339 636,339z"/>
<glyph unicode="." horiz-adv-x="207" d="M110,-11C147,-11 171,16 171,52C171,89 147,115 112,115C77,115 52,88 52,52C52,16 76,-11 110,-11z"/>
<glyph unicode="&#xF660;" horiz-adv-x="131" d="M64,-6C91,-6 109,14 109,39C109,66 91,84 65,84C40,84 21,66 21,39C21,14 39,-6 64,-6z"/>
<glyph unicode="&#xF6E7;" horiz-adv-x="131" d="M64,-153C91,-153 109,-133 109,-108C109,-81 91,-63 65,-63C40,-63 21,-81 21,-108C21,-133 39,-153 64,-153z"/>
<glyph unicode="&#xF66C;" horiz-adv-x="131" d="M64,260C91,260 109,280 109,305C109,332 91,350 65,350C40,350 21,332 21,305C21,280 39,260 64,260z"/>
<glyph unicode="&#xF6E8;" horiz-adv-x="131" d="M64,437C91,437 109,457 109,482C109,509 91,527 65,527C40,527 21,509 21,482C21,457 39,437 64,437z"/>
<glyph unicode="&#xB7;" horiz-adv-x="207" d="M102,200C139,200 163,227 163,262C163,299 139,325 104,325C69,325 44,299 44,262C44,227 68,200 102,200z"/>
<glyph unicode="&#xF6BD;" horiz-adv-x="207" d="M102,275C139,275 163,302 163,337C163,374 139,400 104,400C69,400 44,374 44,337C44,302 68,275 102,275z"/>
<glyph unicode="&#x2030;" horiz-adv-x="1156" d="M188,661C100,661 30,588 30,458C31,328 100,263 182,263C266,263 337,331 337,468C337,591 278,661 188,661M183,608C245,608 268,543 268,463C268,378 242,316 184,316C129,316 97,379 99,462C99,543 129,608 183,608M231,-12l383,674l-56,0l-383,-674M612,392C524,392 454,319 454,189C455,58 524,-7 606,-7C690,-7 761,61 761,198C761,322 702,392 612,392M607,339C669,339 692,273 692,194C692,108 666,46 608,46C553,46 521,109 523,192C523,274 553,339 607,339M977,392C889,392 819,319 819,189C820,58 889,-7 971,-7C1055,-7 1126,61 1126,198C1126,322 1067,392 977,392M972,339C1034,339 1057,273 1057,194C1057,108 1031,46 973,46C918,46 886,109 888,192C888,274 918,339 972,339z"/>
<glyph unicode="&#x3C6;" horiz-adv-x="642" d="M204,498C137,470 38,385 38,245C38,73 162,-1 282,-10l0,-188l81,0l0,188C485,2 603,88 603,254C603,402 501,492 406,493C340,494 282,451 282,347l0,-293C177,70 125,150 125,247C125,351 186,416 238,449M363,361C363,407 380,429 405,429C461,429 519,351 519,253C519,140 458,66 363,53z"/>
<glyph unicode="&#x3C0;" horiz-adv-x="555" d="M520,416l9,68l-376,0C75,484 36,474 14,459l12,-52C51,413 85,416 124,416C121,287 93,95 57,0l83,0C175,80 204,288 208,416l158,0l0,-281C366,58 373,15 382,0l84,0C459,25 453,65 453,144l0,272z"/>
<glyph unicode="+" horiz-adv-x="596" d="M266,532l0,-235l-226,0l0,-60l226,0l0,-237l64,0l0,237l226,0l0,60l-226,0l0,235z"/>
<glyph unicode="&#xB1;" horiz-adv-x="596" d="M266,571l0,-194l-226,0l0,-60l226,0l0,-200l64,0l0,200l226,0l0,60l-226,0l0,194M40,60l0,-60l516,0l0,60z"/>
<glyph unicode="&#x220F;" horiz-adv-x="615" d="M605,577l0,73l-596,0l0,-73l93,0l0,-667l83,0l0,667l244,0l0,-667l83,0l0,667z"/>
<glyph unicode="&#x3C8;" horiz-adv-x="655" d="M295,-198l81,0l0,187C548,-2 609,149 609,293C609,383 590,453 570,484l-81,0C502,464 525,387 525,286C525,147 463,57 376,53l0,558l-81,0l0,-558C219,58 152,106 152,248l0,146C152,444 147,473 139,484l-80,0C65,460 67,416 67,372l0,-131C67,53 171,-3 295,-11z"/>
<glyph unicode="q" horiz-adv-x="563" d="M403,-198l87,0l0,549C490,401 492,444 494,484l-83,0l-3,-73l-2,0C382,457 332,494 257,494C155,494 38,415 38,233C38,86 130,-11 243,-11C321,-11 374,27 401,74l2,0M403,197C403,184 400,167 396,154C376,94 327,59 270,59C173,59 127,142 127,239C127,347 182,424 273,424C339,424 385,378 399,324C402,313 403,300 403,288z"/>
<glyph unicode="?" horiz-adv-x="406" d="M220,192l-2,25C215,268 231,313 275,365C323,422 361,471 361,539C361,615 309,686 194,686C141,686 85,670 51,646l24,-63C100,602 140,614 176,614C239,613 271,579 271,528C271,483 246,444 201,391C151,331 133,271 139,218l2,-26M178,-11C215,-11 238,16 238,51C238,88 215,114 179,114C145,114 120,88 120,51C120,16 144,-11 178,-11z"/>
<glyph unicode="&#xBF;" horiz-adv-x="406" d="M238,488C202,488 178,462 178,425C178,390 202,363 237,363C273,363 296,390 296,425C296,462 273,488 238,488M197,286l1,-26C202,209 186,165 142,112C93,55 55,6 55,-62C55,-138 107,-209 222,-209C275,-209 331,-192 365,-169l-23,63C315,-125 276,-137 240,-137C177,-137 145,-102 145,-51C145,-6 170,33 215,86C264,146 283,206 277,260l-3,26z"/>
<glyph unicode="&#xF6B5;" horiz-adv-x="406" d="M238,683C202,683 178,657 178,620C178,585 202,558 237,558C273,558 296,585 296,620C296,657 273,683 238,683M197,481l1,-26C202,404 186,360 142,307C93,250 55,201 55,133C55,57 107,-14 222,-14C275,-14 331,3 365,26l-23,63C315,70 276,58 240,58C177,58 145,93 145,144C145,189 170,228 215,281C264,341 283,401 277,455l-3,26z"/>
<glyph unicode="&quot;" horiz-adv-x="337" d="M51,692l16,-240l54,0l17,240M200,692l17,-240l53,0l17,240z"/>
<glyph unicode="&#x201E;" horiz-adv-x="356" d="M76,-112C103,-66 146,42 169,126l-90,-10C68,44 42,-59 20,-118M224,-112C251,-66 294,42 317,126l-90,-10C216,44 189,-59 168,-118z"/>
<glyph unicode="&#x201C;" horiz-adv-x="354" d="M125,458C136,530 163,633 184,692l-56,-6C101,640 58,532 35,448M273,458C284,530 310,633 332,692l-56,-6C249,640 206,532 183,448z"/>
<glyph unicode="&#x201D;" horiz-adv-x="354" d="M93,682C82,610 56,507 34,448l56,6C117,500 160,608 183,692M241,682C230,610 203,507 182,448l56,6C265,500 308,608 331,692z"/>
<glyph unicode="&#x2018;" horiz-adv-x="207" d="M125,458C136,530 163,633 184,692l-56,-6C101,640 58,532 35,448z"/>
<glyph unicode="&#x2019;" horiz-adv-x="207" d="M93,682C82,610 55,507 34,448l56,6C117,500 160,608 183,692z"/>
<glyph unicode="&#x201A;" horiz-adv-x="207" d="M77,-112C104,-66 147,42 170,126l-90,-10C69,44 42,-59 21,-118z"/>
<glyph unicode="'" horiz-adv-x="188" d="M51,692l16,-240l54,0l17,240z"/>
<glyph unicode="r" horiz-adv-x="327" d="M73,0l88,0l0,258C161,272 162,287 164,299C176,365 220,411 282,411C294,411 303,411 312,409l0,83C304,493 297,494 288,494C229,494 175,453 153,388l-3,0l-4,96l-77,0C72,439 73,390 73,333z"/>
<glyph unicode="&#x155;" horiz-adv-x="327" d="M73,0l88,0l0,258C161,272 162,287 164,299C176,365 220,411 282,411C294,411 303,411 312,409l0,83C304,493 297,494 288,494C229,494 175,453 153,388l-3,0l-4,96l-77,0C72,439 73,390 73,333M217,693l-88,-143l62,0l122,143z"/>
<glyph unicode="&#x221A;" horiz-adv-x="562" d="M578,827l-66,0l-185,-767C321,38 316,13 313,-4l-1,0C308,14 301,38 293,60l-123,345l-138,-57l19,-47l74,31l160,-427l63,0z"/>
<glyph unicode="&#x159;" horiz-adv-x="327" d="M73,0l88,0l0,258C161,272 162,287 164,299C176,365 220,411 282,411C294,411 303,411 312,409l0,83C304,493 297,494 288,494C229,494 175,453 153,388l-3,0l-4,96l-77,0C72,439 73,390 73,333M214,550l94,143l-66,0l-59,-95l-2,0l-59,95l-67,0l96,-143z"/>
<glyph unicode="&#x157;" horiz-adv-x="327" d="M73,0l88,0l0,258C161,272 162,287 164,299C176,365 220,411 282,411C294,411 303,411 312,409l0,83C304,493 297,494 288,494C229,494 175,453 153,388l-3,0l-4,96l-77,0C72,439 73,390 73,333M60,-222C122,-218 189,-188 189,-115C189,-82 169,-54 149,-41l-65,-14C102,-69 118,-92 118,-116C118,-155 82,-175 43,-181z"/>
<glyph unicode="&#xAE;" horiz-adv-x="419" d="M184,499l18,0C223,499 233,491 236,474C241,454 244,440 249,434l40,0C286,440 282,449 277,474C272,496 264,509 248,514l0,2C267,522 282,535 282,555C282,571 275,583 265,590C254,598 240,603 209,603C182,603 161,600 146,598l0,-164l38,0M185,573C189,574 196,575 206,575C230,575 241,565 241,550C241,533 224,526 203,526l-18,0M211,683C116,683 41,611 41,519C41,427 116,354 210,354C304,354 378,427 378,519C378,611 304,683 211,683M209,650C282,650 336,591 336,518C336,446 282,387 211,388C138,388 83,446 83,519C83,591 138,650 209,650z"/>
<glyph unicode="&#x3C1;" horiz-adv-x="563" d="M157,60C186,15 241,-11 304,-11C419,-11 526,78 526,249C526,394 439,494 304,494C231,494 175,463 138,423C100,383 68,327 68,202l0,-224C68,-97 71,-168 79,-198l84,0C156,-158 155,-73 155,-18l0,78M155,230C155,364 228,422 297,422C387,422 437,342 437,246C437,138 383,58 290,58C228,58 175,100 159,155C156,166 155,178 155,190z"/>
<glyph unicode="&#x2DA;" horiz-adv-x="300" d="M142,537C199,537 242,576 242,628C242,682 203,722 143,722C81,722 41,681 41,628C41,577 83,537 142,537M142,574C112,574 92,601 92,628C92,659 110,685 141,685C173,685 193,660 193,629C193,599 173,574 142,574z"/>
<glyph unicode="&#xEFF3;" horiz-adv-x="400" d="M202,877C139,877 101,836 101,786C101,737 141,698 201,698C260,698 301,736 301,786C301,837 263,877 202,877M199,841C230,841 249,817 249,788C249,758 230,735 200,735C171,735 152,760 152,786C152,815 170,841 199,841z"/>
<glyph unicode="s" horiz-adv-x="396" d="M40,23C74,3 123,-11 176,-11C289,-11 356,49 356,135C356,207 312,249 229,280C166,305 138,323 138,363C138,399 166,429 218,429C263,429 298,412 317,400l21,64C312,481 269,494 220,494C117,494 53,430 53,352C53,294 94,247 182,215C246,191 271,169 271,127C271,86 241,55 178,55C134,55 88,73 61,89z"/>
<glyph unicode="&#x15B;" horiz-adv-x="396" d="M40,23C74,3 123,-11 176,-11C289,-11 356,49 356,135C356,207 312,249 229,280C166,305 138,323 138,363C138,399 166,429 218,429C263,429 298,412 317,400l21,64C312,481 269,494 220,494C117,494 53,430 53,352C53,294 94,247 182,215C246,191 271,169 271,127C271,86 241,55 178,55C134,55 88,73 61,89M244,693l-87,-143l62,0l122,143z"/>
<glyph unicode="&#x161;" horiz-adv-x="396" d="M40,23C74,3 123,-11 176,-11C289,-11 356,49 356,135C356,207 312,249 229,280C166,305 138,323 138,363C138,399 166,429 218,429C263,429 298,412 317,400l21,64C312,481 269,494 220,494C117,494 53,430 53,352C53,294 94,247 182,215C246,191 271,169 271,127C271,86 241,55 178,55C134,55 88,73 61,89M235,550l94,143l-66,0l-59,-95l-2,0l-59,95l-67,0l96,-143z"/>
<glyph unicode="&#x15F;" horiz-adv-x="396" d="M40,23C79,1 128,-10 168,-10l3,0l-40,-71C178,-85 209,-97 209,-123C210,-146 188,-154 166,-154C149,-154 129,-149 112,-140l-15,-43C114,-193 141,-200 165,-200C221,-200 270,-178 270,-119C270,-80 236,-55 200,-50l27,45C309,10 356,64 356,135C356,207 312,249 229,280C166,305 138,323 138,363C138,399 166,429 218,429C263,429 298,412 317,401l21,63C312,481 269,494 220,494C117,494 53,430 53,352C53,295 94,247 182,215C246,191 271,169 271,127C271,86 241,55 178,55C134,55 88,73 61,89z"/>
<glyph unicode="&#xF6C2;" horiz-adv-x="268" d="M40,23C79,1 128,-10 168,-10l3,0l-40,-71C178,-85 209,-97 209,-123C210,-146 188,-154 166,-154C149,-154 129,-149 112,-140l-15,-43C114,-193 141,-200 165,-200C221,-200 270,-178 270,-119C270,-80 236,-55 200,-50l27,45C309,10 356,64 356,135C356,207 312,249 229,280C166,305 138,323 138,363C138,399 166,429 218,429C263,429 298,412 317,401l21,63C312,481 269,494 220,494C117,494 53,430 53,352C53,295 94,247 182,215C246,191 271,169 271,127C271,86 241,55 178,55C134,55 88,73 61,89z"/>
<glyph unicode="&#x15D;" horiz-adv-x="396" d="M40,23C74,3 123,-11 176,-11C289,-11 356,49 356,135C356,207 312,249 229,280C166,305 138,323 138,363C138,399 166,429 218,429C263,429 298,412 317,400l21,64C312,481 269,494 220,494C117,494 53,430 53,352C53,294 94,247 182,215C246,191 271,169 271,127C271,86 241,55 178,55C134,55 88,73 61,89M169,693l-94,-143l66,0l57,94l2,0l59,-94l67,0l-96,143z"/>
<glyph unicode="&#x219;" horiz-adv-x="396" d="M40,23C74,3 123,-11 176,-11C289,-11 356,49 356,135C356,207 312,249 229,280C166,305 138,323 138,363C138,399 166,429 218,429C263,429 298,412 317,400l21,64C312,481 269,494 220,494C117,494 53,430 53,352C53,294 94,247 182,215C246,191 271,169 271,127C271,86 241,55 178,55C134,55 88,73 61,89M136,-222C198,-218 265,-188 265,-115C265,-82 245,-54 225,-41l-65,-14C178,-69 194,-92 194,-116C194,-155 158,-175 119,-181z"/>
<glyph unicode="&#xA7;" horiz-adv-x="519" d="M131,350C131,381 144,406 176,429C209,409 260,393 299,378C364,355 388,323 388,285C388,254 374,226 350,208C327,223 287,238 236,256C157,285 131,315 131,350M418,650C384,669 336,683 280,683C177,683 96,629 96,541C96,507 112,473 133,458C80,423 59,378 59,340C59,255 131,218 233,183C326,150 355,125 355,78C355,26 307,-3 244,-3C184,-3 135,20 111,37l-24,-57C125,-48 184,-62 244,-62C338,-62 434,-16 434,88C434,129 412,162 396,177C435,207 460,245 460,298C460,388 390,425 298,455C223,480 173,499 173,551C173,596 218,625 277,625C331,625 371,609 396,593z"/>
<glyph unicode=";" horiz-adv-x="207" d="M78,-116C106,-69 150,41 174,127l-97,-10C66,43 39,-63 17,-123M118,342C155,342 178,369 178,404C178,441 155,467 119,467C85,467 60,441 60,404C60,369 84,342 118,342z"/>
<glyph unicode="7" horiz-adv-x="513" d="M57,650l0,-73l318,0l0,-2l-282,-575l91,0l283,592l0,58z"/>
<glyph unicode="&#xF65C;" horiz-adv-x="294" d="M19,388l0,-55l192,0l0,-1l-171,-332l70,0l172,345l0,43z"/>
<glyph unicode="&#xF63F;" horiz-adv-x="412" d="M1,650l0,-73l318,0l0,-2l-282,-575l91,0l283,592l0,58z"/>
<glyph unicode="&#x2087;" horiz-adv-x="294" d="M19,241l0,-55l192,0l0,-1l-171,-332l70,0l172,345l0,43z"/>
<glyph unicode="&#xF668;" horiz-adv-x="294" d="M19,654l0,-55l192,0l0,-1l-171,-332l70,0l172,345l0,43z"/>
<glyph unicode="&#xF737;" horiz-adv-x="428" d="M405,485l-387,0l0,-73l297,0l0,-2C262,270 122,21 41,-98l82,-15C224,43 343,266 405,429z"/>
<glyph unicode="&#x2077;" horiz-adv-x="294" d="M19,831l0,-55l192,0l0,-1l-171,-332l70,0l172,345l0,43z"/>
<glyph unicode="&#xF64A;" horiz-adv-x="530" d="M454,485l-387,0l0,-73l297,0l0,-2C311,270 171,21 90,-98l82,-15C273,43 392,266 454,429z"/>
<glyph unicode="&#x3C3;" horiz-adv-x="554" d="M412,431C483,428 516,428 539,428l3,67C524,493 466,494 433,494l-53,0C366,494 314,494 287,494C141,494 38,399 38,237C38,84 140,-11 270,-11C380,-11 502,67 502,245C502,318 469,388 412,428M273,55C189,55 128,135 128,241C128,332 173,428 273,428C373,428 415,326 415,245C415,135 352,55 273,55z"/>
<glyph unicode="6" horiz-adv-x="513" d="M416,660C400,660 378,659 352,655C270,645 198,612 144,559C79,495 34,394 34,266C34,97 125,-11 263,-11C399,-11 480,99 480,219C480,345 399,429 284,429C212,429 157,395 126,353l-2,0C139,461 211,561 350,583C375,587 398,589 416,588M265,57C172,57 122,137 121,244C121,260 125,272 130,282C154,330 204,362 257,362C338,362 391,306 391,213C391,120 340,57 265,57z"/>
<glyph unicode="&#xF65B;" horiz-adv-x="332" d="M267,394C257,394 243,393 228,392C171,386 125,368 90,335C50,297 23,236 23,162C23,65 78,-5 171,-5C252,-5 309,57 309,134C309,209 259,259 187,259C145,259 112,239 93,218l-2,0C102,278 147,329 227,340C242,342 257,342 267,341M171,46C117,46 89,91 89,145C89,154 91,160 94,166C107,192 134,211 165,211C212,211 241,179 241,130C241,82 213,46 171,46z"/>
<glyph unicode="&#xF63E;" horiz-adv-x="515" d="M418,660C402,660 380,659 354,655C272,645 200,612 146,559C81,495 36,394 36,266C36,97 127,-11 265,-11C401,-11 482,99 482,219C482,345 401,429 286,429C214,429 159,395 128,353l-2,0C141,461 213,561 352,583C377,587 400,589 418,588M267,57C174,57 124,137 123,244C123,260 127,272 132,282C156,330 206,362 259,362C340,362 393,306 393,213C393,120 342,57 267,57z"/>
<glyph unicode="&#x2086;" horiz-adv-x="332" d="M267,247C257,247 243,246 228,245C171,240 125,221 90,188C50,150 23,89 23,15C23,-82 78,-152 171,-152C252,-152 309,-90 309,-13C309,62 259,112 187,112C145,112 112,92 93,71l-2,0C102,131 147,182 227,193C242,195 257,195 267,194M171,-101C117,-101 89,-56 89,-2C89,7 91,13 94,19C107,45 134,64 165,64C212,64 241,32 241,-17C241,-65 213,-101 171,-101z"/>
<glyph unicode="&#xF667;" horiz-adv-x="332" d="M267,660C257,660 243,659 228,658C171,652 125,634 90,601C50,563 23,502 23,428C23,331 78,261 171,261C252,261 309,323 309,400C309,475 259,525 187,525C145,525 112,505 93,484l-2,0C102,544 147,595 227,606C242,608 257,608 267,607M171,312C117,312 89,357 89,411C89,420 91,426 94,432C107,458 134,477 165,477C212,477 241,445 241,396C241,348 213,312 171,312z"/>
<glyph unicode="&#xF736;" horiz-adv-x="520" d="M432,606C192,593 46,443 46,236C46,88 135,-11 269,-11C373,-11 477,68 477,203C477,322 392,394 290,394C221,394 169,357 144,321l-3,1C163,435 258,530 438,541M270,56C187,56 135,125 135,206C135,239 143,264 167,289C186,309 223,332 268,332C341,332 390,280 390,198C390,103 329,56 270,56z"/>
<glyph unicode="&#x2076;" horiz-adv-x="332" d="M267,837C257,837 243,836 228,835C171,829 125,811 90,778C50,740 23,679 23,605C23,507 78,437 171,437C252,437 309,499 309,576C309,652 259,702 187,702C145,702 112,682 93,661l-2,0C102,721 147,772 227,783C242,785 257,785 267,784M171,488C117,488 89,533 89,587C89,596 91,603 94,609C107,635 134,654 165,654C212,654 241,622 241,572C241,524 213,488 171,488z"/>
<glyph unicode="&#xF649;" horiz-adv-x="530" d="M441,606C202,593 56,443 56,236C56,88 145,-11 278,-11C382,-11 486,68 486,203C486,322 401,394 300,394C230,394 179,357 154,321l-3,1C173,435 267,530 447,541M279,56C197,56 145,125 145,206C145,239 153,264 177,289C196,309 232,332 278,332C350,332 399,280 399,198C399,103 338,56 279,56z"/>
<glyph unicode="/" horiz-adv-x="343" d="M66,-39l280,725l-69,0l-278,-725z"/>
<glyph unicode=" " horiz-adv-x="212"/>
<glyph unicode="&#xE308;" horiz-adv-x="300" d="M150,-80C122,-80 99,-103 99,-132C99,-159 120,-183 149,-183C179,-183 199,-159 199,-132C199,-103 178,-80 150,-80z"/>
<glyph unicode="&#xE319;" horiz-adv-x="300" d="M150,-181C178,-181 199,-157 199,-130C199,-104 178,-80 151,-80C123,-80 101,-104 101,-130C101,-157 122,-181 150,-181z"/>
<glyph unicode="&#xE309;" horiz-adv-x="300" d="M161,530C184,575 236,591 236,647C236,691 199,722 152,722C102,722 72,691 54,655l34,-20C100,653 115,670 137,670C155,670 170,657 170,636C170,599 126,586 114,542z"/>
<glyph unicode="&#xE320;" horiz-adv-x="300" d="M169,709C195,755 240,766 240,817C240,858 203,889 157,889C106,889 76,858 58,822l34,-20C103,819 120,837 141,837C161,837 174,825 174,806C174,773 138,765 122,722z"/>
<glyph unicode="&#xF6D6;" horiz-adv-x="300" d="M-2,686l116,-142l55,0l-80,142M149,686l115,-142l56,0l-81,142z"/>
<glyph unicode="&#xF6D3;" horiz-adv-x="300" d="M-45,828l128,-117l66,0l-91,117M129,828l127,-117l67,0l-92,117z"/>
<glyph unicode="&#xE310;" horiz-adv-x="300" d="M173,433l31,0C266,433 303,470 303,520C303,547 296,572 285,592l-67,-11C229,563 235,542 235,523C235,498 223,484 188,484l-15,0z"/>
<glyph unicode="&#xE321;" horiz-adv-x="300" d="M173,621l30,0C270,621 303,656 303,707C303,736 296,760 286,782l-68,-12C229,752 235,731 235,712C235,686 223,674 188,674l-15,0z"/>
<glyph unicode="&#xF6C3;" horiz-adv-x="300" d="M93,-222C155,-218 222,-188 222,-115C222,-82 202,-54 182,-41l-65,-14C135,-69 151,-92 151,-116C151,-155 115,-175 76,-181z"/>
<glyph unicode="&#xF634;" horiz-adv-x="300" d="M93,-222C155,-218 222,-188 222,-115C222,-82 202,-54 182,-41l-65,-14C135,-70 151,-92 151,-116C151,-155 115,-175 76,-181z"/>
<glyph unicode="&#xA3;" horiz-adv-x="513" d="M471,0l0,73l-298,0l0,2C207,104 231,140 242,183C251,219 249,257 246,295l136,0l0,63l-144,0C232,390 227,422 227,465C227,536 258,590 336,590C378,590 408,580 426,570l19,66C424,649 388,661 336,661C225,661 144,584 144,466C144,427 150,388 155,358l-93,0l0,-63l103,0C169,269 170,249 170,225C170,150 123,84 56,50l0,-50z"/>
<glyph unicode="&#xF651;" horiz-adv-x="530" d="M478,0l0,71l-291,0l0,2C223,97 249,137 250,190C250,200 249,211 247,222l139,0l0,55l-149,0C233,296 230,317 230,338C230,415 266,464 339,464C380,464 411,454 429,444l19,64C426,521 389,533 339,533C224,533 147,454 147,339C147,319 151,298 155,277l-86,0l0,-55l97,0C168,208 170,193 170,178C170,124 129,78 63,50l0,-50z"/>
<glyph unicode="&#x2211;" horiz-adv-x="507" d="M514,-90l0,73l-392,0l0,4l234,294l-222,293l0,4l349,0l0,72l-461,0l0,-58l238,-314l-251,-315l0,-53z"/>
<glyph unicode="t" horiz-adv-x="331" d="M93,574l0,-90l-75,0l0,-67l75,0l0,-264C93,96 103,53 127,26C148,3 181,-11 222,-11C256,-11 283,-5 300,1l-4,67C283,64 269,62 245,62C196,62 179,96 179,156l0,261l126,0l0,67l-126,0l0,116z"/>
<glyph unicode="&#x3C4;" horiz-adv-x="413" d="M321,60C316,59 309,59 300,59C271,59 245,75 245,141l0,275l149,0l11,68l-279,0C47,484 11,471 -5,459l11,-51C27,412 53,416 104,416l53,0l0,-277C157,37 191,-11 269,-11C288,-11 308,-8 317,-2z"/>
<glyph unicode="&#x167;" horiz-adv-x="331" d="M305,417l0,67l-126,0l0,116l-86,-26l0,-90l-75,0l0,-67l75,0l0,-115l-66,0l0,-54l66,0l0,-95C93,96 103,53 127,26C148,3 181,-11 222,-11C256,-11 283,-5 300,1l-4,67C283,64 269,62 245,62C198,62 179,94 179,152l0,96l98,0l0,54l-98,0l0,115z"/>
<glyph unicode="&#x165;" horiz-adv-x="339" d="M93,573l0,-89l-75,0l0,-67l75,0l0,-264C93,96 103,53 127,26C148,3 181,-11 222,-11C256,-11 284,-5 301,1l-4,67C283,64 269,62 246,62C196,62 179,96 179,156l0,261l127,0l0,67l-127,0l0,116M277,541C302,551 358,585 358,653C358,685 340,711 323,722l-64,-13C276,695 289,673 289,651C289,614 269,589 251,576z"/>
<glyph unicode="&#x163;" horiz-adv-x="331" d="M93,574l0,-90l-75,0l0,-67l75,0l0,-264C93,96 103,53 127,26C148,3 181,-11 222,-11C256,-11 283,-5 300,1l-4,67C283,64 269,62 245,62C196,62 179,96 179,156l0,261l126,0l0,67l-126,0l0,116M122,-227C184,-223 251,-193 251,-120C251,-87 231,-59 211,-46l-65,-14C164,-74 180,-97 180,-121C180,-160 144,-180 105,-186z"/>
<glyph unicode="&#x3B8;" horiz-adv-x="534" d="M268,-11C424,-11 496,136 496,361C496,576 426,721 272,721C120,721 38,565 38,361C38,114 126,-11 268,-11M125,399C125,535 178,656 267,656C364,656 409,541 409,399M410,334C410,170 365,54 271,54C185,54 125,156 125,334z"/>
<glyph unicode="&#xFE;" horiz-adv-x="569" d="M73,669l0,-867l87,0l0,263l2,0C193,17 247,-11 311,-11C421,-11 532,71 532,248C532,398 441,495 327,494C248,494 194,459 162,407l-2,0l0,262M160,280C160,296 165,315 170,329C190,388 244,424 300,424C391,424 443,342 443,246C443,131 385,58 298,58C240,58 189,92 169,147C163,159 160,177 160,191z"/>
<glyph unicode="3" horiz-adv-x="513" d="M42,33C74,12 138,-11 211,-11C366,-11 448,80 448,184C447,275 383,335 303,350l0,2C382,381 423,438 423,506C423,585 365,661 237,661C167,661 101,636 66,611l24,-64C118,567 168,590 220,590C301,590 334,544 334,492C334,415 253,382 189,382l-49,0l0,-66l49,0C274,316 356,277 357,186C358,131 322,60 210,60C148,60 91,85 66,100z"/>
<glyph unicode="&#xF658;" horiz-adv-x="305" d="M45,316C61,327 94,343 130,343C175,343 193,318 193,293C193,247 139,230 102,230l-28,0l0,-46l27,0C154,185 207,165 207,114C208,83 181,47 119,47C82,47 42,62 26,73l-18,-50C31,8 75,-5 123,-5C225,-5 281,50 281,112C281,163 242,201 188,209l0,2C236,227 265,260 265,301C265,349 229,395 143,395C94,395 51,379 28,364z"/>
<glyph unicode="&#xF63B;" horiz-adv-x="450" d="M7,33C39,12 103,-11 176,-11C331,-11 413,80 413,184C412,275 348,335 268,350l0,2C347,381 388,438 388,506C388,585 330,661 202,661C132,661 66,636 31,611l24,-64C83,567 133,590 185,590C266,590 299,544 299,492C299,415 218,382 154,382l-49,0l0,-66l49,0C239,316 321,277 322,186C323,131 287,60 175,60C113,60 56,85 31,100z"/>
<glyph unicode="&#x2083;" horiz-adv-x="305" d="M45,169C61,180 94,196 130,196C175,196 193,171 193,146C193,100 139,83 102,83l-28,0l0,-46l27,0C154,38 207,18 207,-33C208,-64 181,-100 119,-100C82,-100 42,-85 26,-74l-18,-50C31,-139 75,-152 123,-152C225,-152 281,-97 281,-35C281,16 242,54 188,62l0,2C236,80 265,113 265,154C265,202 229,248 143,248C94,248 51,232 28,217z"/>
<glyph unicode="&#xF664;" horiz-adv-x="305" d="M45,582C61,593 94,609 130,609C175,609 193,584 193,559C193,513 139,496 102,496l-28,0l0,-46l27,0C154,451 207,431 207,380C208,349 181,313 119,313C82,313 42,328 26,339l-18,-50C31,274 75,261 123,261C225,261 281,316 281,378C281,429 242,467 188,475l0,2C236,493 265,526 265,567C265,615 229,661 143,661C94,661 51,645 28,630z"/>
<glyph unicode="&#xF733;" horiz-adv-x="433" d="M18,-95C40,-105 93,-115 145,-115C280,-115 396,-39 396,76C396,161 328,209 249,220l0,3C317,243 367,293 367,362C367,445 295,496 193,496C127,496 64,472 33,451l18,-58C75,406 123,427 174,427C239,427 279,401 279,347C279,285 209,248 116,241l-19,-1l2,-65C111,176 131,177 154,177C246,177 306,138 306,75C306,2 236,-46 137,-46C95,-46 53,-38 28,-30z"/>
<glyph unicode="&#xF646;" horiz-adv-x="530" d="M62,-95C84,-105 137,-115 189,-115C324,-115 440,-39 440,76C440,161 372,209 293,220l0,3C361,243 411,293 411,362C411,445 339,496 237,496C171,496 108,472 77,451l18,-58C119,406 167,427 218,427C283,427 323,401 323,347C323,285 253,248 160,241l-19,-1l2,-65C155,176 175,177 198,177C290,177 350,138 350,75C350,2 280,-46 181,-46C139,-46 97,-38 72,-30z"/>
<glyph unicode="&#xBE;" horiz-adv-x="759" d="M66,582C82,593 114,609 150,609C196,609 214,584 214,559C214,513 160,496 123,496l-27,0l0,-46l27,0C176,451 229,431 229,380C230,349 203,313 141,313C104,313 64,328 48,339l-18,-50C53,274 97,261 145,261C247,261 303,316 303,378C303,429 264,467 210,475l0,2C257,493 286,526 286,567C286,615 250,661 163,661C114,661 72,645 49,629M232,-11l379,672l-56,0l-380,-672M674,0l0,103l60,0l0,49l-60,0l0,243l-73,0l-193,-253l0,-39l200,0l0,-103M608,152l-128,0l-1,1l97,125C587,294 596,311 609,333l2,0C610,315 608,294 608,270z"/>
<glyph unicode="&#xB3;" horiz-adv-x="305" d="M45,759C61,770 94,786 130,786C175,786 193,761 193,736C193,690 139,673 102,673l-28,0l0,-46l27,0C154,627 207,607 207,556C208,525 181,489 119,489C82,489 42,505 26,515l-18,-50C31,450 75,437 123,437C225,437 281,493 281,554C281,605 242,643 188,651l0,2C236,670 265,703 265,744C265,792 229,838 143,838C94,838 51,822 28,807z"/>
<glyph unicode="&#x2DC;" horiz-adv-x="300" d="M75,567C77,595 85,612 101,612C113,612 124,606 144,594C165,583 184,573 206,573C253,573 275,608 274,674l-47,0C225,641 215,632 200,632C187,632 173,640 157,649C134,661 117,671 95,671C52,671 25,632 27,567z"/>
<glyph unicode="&#xEFF5;" horiz-adv-x="300" d="M73,715C76,742 83,759 99,759C114,759 127,750 146,740C168,729 186,721 207,721C253,721 275,755 274,818l-46,0C225,786 216,779 201,779C185,779 169,788 153,797C132,808 116,817 94,817C51,817 25,776 26,715z"/>
<glyph unicode="&#x384;" horiz-adv-x="301" d="M137,694l-53,-143l59,0l83,143z"/>
<glyph unicode="&#x2122;" horiz-adv-x="619" d="M31,674l0,-45l86,0l0,-227l54,0l0,227l87,0l0,45M606,402l-21,272l-78,0l-47,-135C454,520 448,496 441,472l-1,0C433,500 429,520 422,541l-47,133l-81,0l-20,-272l52,0l10,160C337,587 338,613 338,638l3,0C347,614 355,581 360,561l49,-155l56,0l49,151C521,582 530,614 537,638l3,0C541,609 541,583 542,562l10,-160z"/>
<glyph unicode="2" horiz-adv-x="513" d="M460,0l0,73l-291,0l0,2l51,48C357,255 444,352 444,472C444,565 385,661 245,661C171,661 106,632 62,595l28,-62C120,558 169,588 228,588C325,588 356,527 356,461C356,363 280,279 114,121l-69,-67l0,-54z"/>
<glyph unicode="&#xF657;" horiz-adv-x="311" d="M12,0l270,0l0,55l-170,0l0,2l30,28C218,152 275,207 275,283C275,336 237,395 143,395C92,395 47,376 20,354l21,-46C60,322 90,339 125,339C177,339 201,308 201,269C201,218 158,172 75,95l-63,-58z"/>
<glyph unicode="&#xF63A;" horiz-adv-x="447" d="M418,0l0,73l-291,0l0,2l51,48C315,255 402,352 402,472C402,565 343,661 203,661C129,661 64,632 20,595l28,-62C78,558 127,588 186,588C283,588 314,527 314,461C314,363 238,279 72,121l-69,-67l0,-54z"/>
<glyph unicode="&#x2082;" horiz-adv-x="311" d="M12,-147l270,0l0,55l-170,0l0,2l30,28C218,5 275,60 275,136C275,189 237,248 143,248C92,248 47,229 20,206l21,-45C60,175 90,192 125,192C177,192 201,160 201,122C201,71 158,25 75,-52l-63,-58z"/>
<glyph unicode="&#xF663;" horiz-adv-x="311" d="M12,266l270,0l0,55l-170,0l0,2l30,28C218,418 275,473 275,549C275,602 237,661 143,661C92,661 47,642 20,620l21,-46C60,588 90,605 125,605C177,605 201,574 201,535C201,484 158,438 75,361l-63,-58z"/>
<glyph unicode="&#xF732;" horiz-adv-x="448" d="M420,0l0,70l-181,0C213,70 182,69 157,66l0,3l51,37C313,180 385,249 385,342C385,441 313,498 212,498C131,498 66,463 30,436l24,-57C88,404 138,428 189,428C252,428 297,395 297,330C297,249 223,181 73,82l-49,-34l0,-48z"/>
<glyph unicode="&#xF645;" horiz-adv-x="530" d="M462,0l0,70l-181,0C255,70 224,69 199,66l0,3l51,37C355,180 427,249 427,342C427,441 355,498 254,498C173,498 108,463 72,436l24,-57C130,404 180,428 231,428C294,428 339,395 339,330C339,249 265,181 115,82l-49,-34l0,-48z"/>
<glyph unicode="&#xB2;" horiz-adv-x="311" d="M12,443l270,0l0,55l-170,0l0,2l30,28C218,595 275,650 275,725C275,778 237,837 143,837C92,837 47,818 20,796l21,-46C60,764 90,781 125,781C177,781 201,750 201,712C201,661 158,614 75,538l-63,-58z"/>
<glyph unicode="u" horiz-adv-x="551" d="M478,484l-88,0l0,-296C390,171 387,155 382,143C366,103 325,62 266,62C187,62 158,125 158,217l0,267l-88,0l0,-283C70,32 161,-11 237,-11C323,-11 375,40 397,79l2,0l5,-79l78,0C479,38 478,82 478,133z"/>
<glyph unicode="&#xFA;" horiz-adv-x="551" d="M478,484l-88,0l0,-296C390,171 387,155 382,143C366,103 325,62 266,62C187,62 158,125 158,217l0,267l-88,0l0,-283C70,32 161,-11 237,-11C323,-11 375,40 397,79l2,0l5,-79l78,0C479,38 478,82 478,133M321,693l-88,-143l62,0l122,143z"/>
<glyph unicode="&#x16D;" horiz-adv-x="551" d="M478,484l-88,0l0,-296C390,171 387,155 382,143C366,103 325,62 266,62C187,62 158,125 158,217l0,267l-88,0l0,-283C70,32 161,-11 237,-11C323,-11 375,40 397,79l2,0l5,-79l78,0C479,38 478,82 478,133M151,682C151,619 187,557 275,557C350,557 399,607 399,682l-52,0C344,648 322,613 274,613C234,613 209,643 203,682z"/>
<glyph unicode="&#xFB;" horiz-adv-x="551" d="M478,484l-88,0l0,-296C390,171 387,155 382,143C366,103 325,62 266,62C187,62 158,125 158,217l0,267l-88,0l0,-283C70,32 161,-11 237,-11C323,-11 375,40 397,79l2,0l5,-79l78,0C479,38 478,82 478,133M244,693l-94,-143l66,0l58,94l2,0l58,-94l67,0l-96,143z"/>
<glyph unicode="&#xFC;" horiz-adv-x="551" d="M478,484l-88,0l0,-296C390,171 387,155 382,143C366,103 325,62 266,62C187,62 158,125 158,217l0,267l-88,0l0,-283C70,32 161,-11 237,-11C323,-11 375,40 397,79l2,0l5,-79l78,0C479,38 478,82 478,133M185,570C215,570 235,594 235,621C235,650 214,672 187,672C158,672 136,649 136,621C136,594 157,570 185,570M370,570C400,570 420,594 420,621C420,650 399,672 371,672C343,672 321,649 321,621C321,594 341,570 370,570z"/>
<glyph unicode="&#xF9;" horiz-adv-x="551" d="M478,484l-88,0l0,-296C390,171 387,155 382,143C366,103 325,62 266,62C187,62 158,125 158,217l0,267l-88,0l0,-283C70,32 161,-11 237,-11C323,-11 375,40 397,79l2,0l5,-79l78,0C479,38 478,82 478,133M140,693l122,-143l62,0l-88,143z"/>
<glyph unicode="&#x1B0;" horiz-adv-x="551" d="M489,581C500,563 507,543 507,524C507,498 494,484 460,484l-70,0l0,-296C390,171 387,155 382,143C366,103 325,62 266,62C187,62 158,124 158,216l0,268l-88,0l0,-283C70,32 161,-11 237,-11C323,-11 375,40 397,79l2,0l5,-79l78,0C479,38 478,82 478,132l0,304l11,0C538,438 574,471 574,521C574,547 567,572 556,593z"/>
<glyph unicode="&#x171;" horiz-adv-x="551" d="M478,484l-88,0l0,-296C390,171 387,155 382,143C366,103 325,62 266,62C187,62 158,125 158,217l0,267l-88,0l0,-283C70,32 161,-11 237,-11C323,-11 375,40 397,79l2,0l5,-79l78,0C479,38 478,82 478,133M246,693l-79,-136l55,0l110,136M390,693l-79,-136l55,0l110,136z"/>
<glyph unicode="&#x16B;" horiz-adv-x="551" d="M478,484l-88,0l0,-296C390,171 387,155 382,143C366,103 325,62 266,62C187,62 158,125 158,217l0,267l-88,0l0,-283C70,32 161,-11 237,-11C323,-11 375,40 397,79l2,0l5,-79l78,0C479,38 478,82 478,133M163,643l0,-57l225,0l0,57z"/>
<glyph unicode="_" horiz-adv-x="500" d="M0,-75l0,-50l500,0l0,50z"/>
<glyph unicode="&#xA0;" horiz-adv-x="212"/>
<glyph unicode="&#xAD;" horiz-adv-x="291" d="M30,302l0,-64l247,0l0,64z"/>
<glyph unicode="&#x21A;" horiz-adv-x="497" d="M204,0l88,0l0,600l206,0l0,74l-499,0l0,-74l205,0M180,-222C242,-218 309,-188 309,-115C309,-82 289,-54 269,-41l-65,-14C222,-70 238,-92 238,-116C238,-155 202,-175 163,-181z"/>
<glyph unicode="&#x21B;" horiz-adv-x="331" d="M93,574l0,-90l-75,0l0,-67l75,0l0,-264C93,96 103,53 127,26C148,3 181,-11 222,-11C256,-11 283,-5 300,1l-4,67C283,64 269,62 245,62C196,62 179,96 179,156l0,261l126,0l0,67l-126,0l0,116M122,-227C184,-223 251,-193 251,-120C251,-87 231,-59 211,-46l-65,-14C164,-74 180,-97 180,-121C180,-160 144,-180 105,-186z"/>
<glyph unicode="&#x21C;" horiz-adv-x="480" d="M63,-115C293,-88 441,34 441,187C441,295 363,362 262,371l0,3C330,405 385,463 385,538C385,626 311,686 203,686C135,686 63,659 31,639l18,-59C74,593 133,616 186,616C251,615 297,579 297,524C297,445 209,383 96,358l12,-62C142,307 181,313 202,313C296,315 349,255 349,182C349,64 212,-23 52,-46z"/>
<glyph unicode="&#x21D;" horiz-adv-x="427" d="M43,-209C276,-190 400,-73 400,57C400,145 337,203 245,214l0,2C308,242 351,291 351,357C351,440 283,494 182,494C117,494 56,469 19,445l19,-58C62,400 110,425 161,425C225,425 265,394 265,341C265,268 188,228 81,203l12,-62C121,149 154,156 181,156C270,156 310,106 310,47C310,-108 73,-138 35,-141z"/>
<glyph unicode="&#x232;" horiz-adv-x="541" d="M314,0l0,287l225,387l-98,0l-97,-186C318,437 294,393 276,349l-2,0C253,396 232,437 207,488l-95,186l-100,0l214,-388l0,-286M151,788l0,-55l240,0l0,55z"/>
<glyph unicode="&#x233;" horiz-adv-x="471" d="M9,484l178,-446C192,27 194,20 194,15C194,10 191,3 187,-6C166,-51 137,-85 113,-104C87,-126 58,-140 36,-147l22,-73C80,-216 122,-201 166,-164C226,-111 269,-27 332,139l132,345l-93,0l-96,-284C263,165 253,128 244,99l-2,0C234,128 222,166 210,198l-105,286M124,643l0,-57l225,0l0,57z"/>
<glyph unicode="&#x2C9;" horiz-adv-x="300" d="M38,643l0,-57l225,0l0,57z"/>
<glyph unicode="&#x37E;" horiz-adv-x="217" d="M92,-116C115,-69 156,41 173,119l-97,-5C70,43 47,-63 30,-123M118,323C157,323 182,352 182,389C182,428 157,455 120,455C83,455 57,427 57,389C57,352 82,323 118,323z"/>
<glyph unicode="&#x394;" horiz-adv-x="620" d="M26,0l565,0l0,50l-232,624l-99,0l-234,-624M119,73l141,384C276,504 295,560 304,594l3,0C319,551 340,491 357,444l137,-371z"/>
<glyph unicode="&#x3A9;" horiz-adv-x="705" d="M528,72C595,129 661,228 661,367C661,545 544,686 357,686C178,686 43,551 43,358C44,229 109,128 176,72l0,-3l-146,0l0,-69l254,0l0,55C204,105 134,225 134,351C134,484 213,615 355,615C498,615 571,476 571,353C571,217 502,110 422,55l0,-55l253,0l0,69l-147,0z"/>
<glyph unicode="&#x3BC;" horiz-adv-x="553" d="M403,75C411,13 446,-11 489,-11C504,-11 509,-10 520,-7l7,64C491,59 481,80 481,133l0,351l-88,0l0,-296C393,171 390,155 385,142C369,102 328,61 270,61C192,61 161,123 161,198l0,286l-88,0l0,-503C73,-97 77,-168 87,-198l79,0C157,-158 155,-69 155,-15l0,59C176,7 217,-9 261,-9C333,-9 380,37 400,75z"/>
<glyph unicode="&#x3C2;" horiz-adv-x="417" d="M408,472C382,486 342,494 299,494C131,494 38,363 38,234C38,104 118,32 220,4C249,-4 286,-12 319,-17C317,-41 300,-103 286,-126l59,-18C370,-111 402,-26 402,29C402,38 399,42 393,43C347,50 311,56 263,70C177,96 127,147 127,241C127,341 194,426 299,426C337,426 363,419 388,408z"/>
<glyph unicode="&#x401;" horiz-adv-x="492" d="M424,388l-261,0l0,213l277,0l0,73l-365,0l0,-674l380,0l0,73l-292,0l0,243l261,0M162,721C192,721 211,744 211,772C211,800 191,822 163,822C135,822 114,799 114,772C114,744 134,721 162,721M347,721C378,721 397,744 397,772C397,800 377,822 349,822C320,822 299,799 299,772C299,744 319,721 347,721z"/>
<glyph unicode="&#x402;" horiz-adv-x="665" d="M-1,674l0,-73l186,0l0,-601l88,0l0,338C303,360 343,377 387,377C438,377 474,355 499,316C523,281 534,230 534,170C534,96 516,37 487,-1C458,-40 416,-61 377,-71l15,-68C437,-132 490,-110 532,-63C591,-13 625,75 625,178C625,246 611,314 573,366C537,418 484,450 411,450C358,450 308,430 276,409l-3,0l0,192l244,0l0,73z"/>
<glyph unicode="&#x403;" horiz-adv-x="433" d="M75,674l0,-674l88,0l0,601l271,0l0,73M283,827l-93,-117l71,0l128,117z"/>
<glyph unicode="&#x404;" horiz-adv-x="576" d="M544,653C520,666 472,685 387,685C168,685 37,526 37,336C37,118 180,-11 371,-11C451,-11 510,5 543,22l-15,67C488,72 439,62 387,62C233,62 135,173 131,310l345,0l0,69l-346,0C144,510 237,613 390,613C443,613 491,601 523,585z"/>
<glyph unicode="&#x405;" horiz-adv-x="493" d="M42,33C78,9 149,-11 214,-11C373,-11 449,80 449,184C449,283 392,338 278,382C185,418 144,449 144,512C144,558 179,613 271,613C332,613 377,594 398,581l24,71C393,669 342,685 274,685C143,685 56,607 56,502C56,408 124,350 234,310C325,276 361,239 361,177C361,109 309,62 220,62C160,62 104,81 65,106z"/>
<glyph unicode="&#x406;" horiz-adv-x="239" d="M75,674l0,-674l88,0l0,674z"/>
<glyph unicode="&#x407;" horiz-adv-x="239" d="M75,674l0,-674l88,0l0,674M27,721C57,721 76,744 76,772C76,800 56,822 28,822C0,822 -21,799 -21,772C-21,744 -1,721 27,721M212,721C243,721 262,744 262,772C262,800 242,822 214,822C185,822 164,799 164,772C164,744 184,721 212,721z"/>
<glyph unicode="&#x408;" horiz-adv-x="370" d="M213,230C213,98 168,63 90,63C60,63 34,69 16,76l-12,-71C25,-4 64,-11 97,-11C213,-11 301,44 301,223l0,451l-88,0z"/>
<glyph unicode="&#x409;" horiz-adv-x="881" d="M124,674l0,-283C124,282 119,151 66,99C50,83 21,67 -6,62l13,-70C43,-8 83,8 108,24C202,88 209,251 209,397l0,204l205,0l0,-600C443,-2 488,-6 549,-6C642,-6 730,14 786,69C820,104 842,152 842,216C842,364 718,425 583,425C561,425 522,423 501,420l0,254M501,353C523,355 550,357 570,357C665,357 751,318 751,213C751,111 668,62 571,62C543,62 522,62 501,66z"/>
<glyph unicode="&#x40A;" horiz-adv-x="897" d="M75,674l0,-674l88,0l0,331l267,0l0,-329C459,-2 504,-6 567,-6C662,-6 746,13 802,68C836,102 858,149 858,214C858,356 741,416 610,416C574,416 538,414 517,411l0,263l-87,0l0,-269l-267,0l0,269M517,344C536,346 561,348 592,348C684,348 767,310 767,211C767,107 683,62 588,62C559,62 538,63 517,67z"/>
<glyph unicode="&#x40B;" horiz-adv-x="675" d="M-1,674l0,-73l184,0l0,-601l88,0l0,339C303,363 355,382 398,382C436,382 463,370 484,349C507,323 516,289 516,239l0,-239l87,0l0,250C603,317 586,370 550,407C522,436 482,454 426,454C369,454 311,431 273,408l-2,0l0,193l235,0l0,73z"/>
<glyph unicode="&#x40C;" horiz-adv-x="542" d="M76,674l0,-674l87,0l0,309l28,0C305,309 347,248 378,159C397,106 415,46 440,0l93,0C504,60 485,122 459,191C425,282 382,350 270,365l255,309l-104,0l-231,-299l-27,0l0,299M319,822l-93,-117l71,0l128,117z"/>
<glyph unicode="&#x40E;" horiz-adv-x="521" d="M2,674l224,-456C234,202 236,192 229,177C207,129 166,62 97,62C82,62 72,63 64,65l-8,-71C67,-10 82,-12 105,-12C165,-12 214,16 257,71C305,133 347,236 383,326l142,348l-92,0l-106,-286C311,340 298,301 286,267l-3,0C268,306 252,345 235,385l-134,289M133,817C138,751 177,709 259,709C344,709 384,750 389,817l-67,0C318,784 307,755 261,755C214,755 204,786 200,817z"/>
<glyph unicode="&#x40F;" horiz-adv-x="635" d="M75,674l0,-674l200,0l7,-175l73,0l7,175l199,0l0,674l-88,0l0,-601l-310,0l0,601z"/>
<glyph unicode="&#x410;" horiz-adv-x="612" d="M424,212l72,-212l93,0l-230,674l-104,0l-230,-674l90,0l70,212M203,280l66,195C283,516 293,558 303,597l2,0C315,558 325,518 340,474l67,-194z"/>
<glyph unicode="&#x411;" horiz-adv-x="546" d="M76,674l0,-672C105,-2 151,-6 212,-6C304,-6 395,15 450,69C484,104 506,152 506,216C506,294 471,347 420,380C373,411 310,425 246,425C224,425 184,423 163,420l0,181l291,0l0,73M163,353C185,355 213,357 232,357C280,357 326,347 360,323C393,300 415,265 415,213C415,171 401,138 378,114C345,79 290,62 236,62C206,62 183,63 163,67z"/>
<glyph unicode="&#x412;" horiz-adv-x="542" d="M76,2C105,-2 151,-6 211,-6C321,-6 397,14 443,57C478,89 501,134 501,192C501,292 426,345 362,360l0,3C432,388 476,445 476,511C476,564 454,604 419,630C378,664 322,679 235,679C175,679 114,673 76,664M163,606C177,609 200,612 240,612C328,612 387,580 387,502C387,437 333,388 242,388l-79,0M163,323l72,0C330,323 409,284 409,193C409,95 326,62 236,62C205,62 181,63 163,66z"/>
<glyph unicode="&#x413;" horiz-adv-x="433" d="M75,674l0,-674l88,0l0,601l271,0l0,73z"/>
<glyph unicode="&#x414;" horiz-adv-x="630" d="M160,674l0,-171C160,387 151,297 128,219C112,166 87,117 62,71l-50,-2l5,-231l68,0l6,162l425,0l6,-162l68,0l6,231l-59,2l0,603M241,602l209,0l0,-530l-298,0C171,108 193,153 207,200C231,276 241,367 241,475z"/>
<glyph unicode="&#x415;" horiz-adv-x="492" d="M424,388l-261,0l0,213l277,0l0,73l-365,0l0,-674l380,0l0,73l-292,0l0,243l261,0z"/>
<glyph unicode="&#x416;" horiz-adv-x="801" d="M22,674l238,-310C155,351 113,286 79,190C57,127 40,62 11,0l89,0C122,45 138,110 155,158C187,250 220,309 328,309l31,0l0,-309l84,0l0,309l30,0C581,309 614,250 646,158C662,110 678,45 701,0l89,0C762,62 746,127 724,191C690,287 647,354 541,364l239,310l-101,0l-209,-299l-27,0l0,299l-84,0l0,-299l-27,0l-209,299z"/>
<glyph unicode="&#x417;" horiz-adv-x="492" d="M73,571C110,594 162,615 214,615C286,615 335,577 335,508C335,439 265,384 176,384l-39,0l0,-66l40,0C263,318 360,289 360,188C360,114 305,60 206,60C150,60 91,80 54,101l-23,-68C83,2 146,-11 207,-11C330,-11 452,45 452,185C451,282 381,344 287,354l0,2C365,374 426,438 426,521C426,625 345,686 228,686C154,686 96,665 50,635z"/>
<glyph unicode="&#x418;" horiz-adv-x="658" d="M76,674l0,-674l93,0l211,336C426,410 472,488 505,562l3,-1C501,476 500,396 500,287l0,-287l82,0l0,674l-87,0l-218,-347C228,247 186,174 153,104l-3,1C156,195 158,284 158,390l0,284z"/>
<glyph unicode="&#x419;" horiz-adv-x="658" d="M76,674l0,-674l93,0l211,336C426,410 472,488 505,562l3,-1C501,476 500,396 500,287l0,-287l82,0l0,674l-87,0l-218,-347C228,247 186,174 153,104l-3,1C156,195 158,284 158,390l0,284M201,815C206,749 245,707 327,707C412,707 452,748 457,815l-67,0C386,782 375,753 329,753C282,753 272,784 268,815z"/>
<glyph unicode="&#x41A;" horiz-adv-x="542" d="M76,674l0,-674l87,0l0,309l28,0C305,309 347,248 378,159C397,106 415,46 440,0l93,0C504,60 485,122 459,191C425,282 382,350 270,365l255,309l-104,0l-231,-299l-27,0l0,299z"/>
<glyph unicode="&#x41B;" horiz-adv-x="594" d="M123,674l0,-284C123,282 118,150 64,98C48,82 20,66 -7,62l11,-70C43,-8 83,8 108,24C202,88 209,251 209,397l0,204l222,0l0,-601l88,0l0,674z"/>
<glyph unicode="&#x41C;" horiz-adv-x="804" d="M660,0l86,0l-42,674l-111,0l-120,-326C443,263 419,189 401,121l-2,0C381,191 359,265 331,348l-115,326l-111,0l-47,-674l83,0l18,289C165,391 170,503 172,587l2,0C193,507 219,421 251,325l110,-321l66,0l119,327C580,424 607,509 631,587l2,0C633,504 639,390 644,296z"/>
<glyph unicode="&#x41D;" horiz-adv-x="652" d="M75,674l0,-674l88,0l0,316l326,0l0,-316l88,0l0,674l-88,0l0,-282l-326,0l0,282z"/>
<glyph unicode="&#x41E;" horiz-adv-x="689" d="M348,686C168,686 36,546 36,332C36,128 160,-11 339,-11C511,-11 652,113 652,344C652,545 533,686 348,686M345,615C490,615 560,475 560,340C560,187 482,60 344,60C206,60 128,189 128,334C128,481 200,615 345,615z"/>
<glyph unicode="&#x41F;" horiz-adv-x="639" d="M75,674l0,-674l88,0l0,601l313,0l0,-601l88,0l0,674z"/>
<glyph unicode="&#x420;" horiz-adv-x="532" d="M76,0l87,0l0,270C183,265 207,264 233,264C318,264 392,289 439,338C473,373 491,421 491,482C491,542 468,591 432,623C392,659 329,679 243,679C173,679 118,673 76,666M163,603C178,607 207,610 245,610C340,610 404,567 404,477C404,386 340,334 235,334C206,334 182,336 163,341z"/>
<glyph unicode="&#x421;" horiz-adv-x="580" d="M529,91C494,74 440,63 386,63C223,63 128,168 128,334C128,511 233,612 391,612C447,612 494,600 526,584l22,71C525,667 471,685 388,685C179,685 36,543 36,331C36,109 178,-11 368,-11C450,-11 515,5 546,21z"/>
<glyph unicode="&#x422;" horiz-adv-x="497" d="M204,0l88,0l0,600l206,0l0,74l-499,0l0,-74l205,0z"/>
<glyph unicode="&#x423;" horiz-adv-x="521" d="M2,674l224,-456C234,202 236,192 229,177C207,129 166,62 97,62C82,62 72,63 64,65l-8,-71C67,-10 82,-12 105,-12C165,-12 214,16 257,71C305,133 347,236 383,326l142,348l-92,0l-106,-286C311,340 298,301 286,267l-3,0C268,306 252,345 235,385l-134,289z"/>
<glyph unicode="&#x424;" horiz-adv-x="725" d="M321,701l0,-61C191,633 36,554 36,333C36,120 179,45 319,35l0,-62l84,0l0,62C546,44 688,124 688,337C688,549 546,634 405,640l0,61M320,98C221,108 126,176 126,336C126,512 232,573 320,578M404,578C500,572 598,511 598,337C598,171 501,105 404,98z"/>
<glyph unicode="&#x425;" horiz-adv-x="571" d="M546,0l-210,346l205,328l-101,0l-91,-158C324,473 307,442 288,402l-3,0C267,438 248,472 223,516l-89,158l-101,0l198,-333l-206,-341l100,0l81,148C240,207 260,243 279,282l2,0C302,243 323,206 358,149l87,-149z"/>
<glyph unicode="&#x426;" horiz-adv-x="652" d="M75,674l0,-674l464,0l6,-163l68,0l6,232l-59,2l0,603l-88,0l0,-601l-309,0l0,601z"/>
<glyph unicode="&#x427;" horiz-adv-x="597" d="M71,674l0,-230C71,280 181,242 270,242C329,242 385,257 432,284l2,0l0,-288l87,0l0,678l-87,0l0,-322C399,329 348,313 300,313C206,313 158,365 158,458l0,216z"/>
<glyph unicode="&#x428;" horiz-adv-x="847" d="M76,674l0,-674l696,0l0,674l-86,0l0,-601l-219,0l0,601l-86,0l0,-601l-219,0l0,601z"/>
<glyph unicode="&#x429;" horiz-adv-x="864" d="M76,674l0,-674l675,0l6,-163l68,0l6,232l-59,2l0,603l-86,0l0,-601l-219,0l0,601l-86,0l0,-601l-219,0l0,601z"/>
<glyph unicode="&#x42A;" horiz-adv-x="631" d="M-2,674l0,-72l173,0l0,-600C200,-2 246,-6 305,-6C396,-6 485,14 540,73C572,107 592,154 592,216C592,363 469,427 339,427C313,427 278,425 258,422l0,252M258,353C279,355 305,357 328,357C416,357 501,317 501,213C501,111 425,62 327,62C299,62 277,63 258,67z"/>
<glyph unicode="&#x42B;" horiz-adv-x="746" d="M76,674l0,-672C105,-2 151,-6 211,-6C302,-6 396,15 451,73C483,107 503,154 503,216C503,365 382,427 244,427C222,427 183,425 163,421l0,253M163,353C174,354 200,357 232,357C322,357 412,318 412,213C412,111 329,62 233,62C204,62 181,63 163,67M578,674l0,-674l88,0l0,674z"/>
<glyph unicode="&#x42C;" horiz-adv-x="545" d="M76,674l0,-672C105,-2 151,-6 212,-6C305,-6 399,15 454,73C486,107 506,154 506,217C506,366 384,427 246,427C223,427 183,425 163,422l0,252M163,353C185,355 212,357 234,357C330,357 415,317 415,212C415,108 332,62 235,62C205,62 183,63 163,67z"/>
<glyph unicode="&#x42D;" horiz-adv-x="568" d="M124,310l314,0C432,170 343,62 195,62C144,62 88,75 49,93l-19,-70C78,2 140,-11 206,-11C386,-11 531,115 531,337C531,532 423,685 212,685C147,685 89,668 41,646l21,-66C105,598 152,613 207,613C346,613 426,511 437,380l-313,0z"/>
<glyph unicode="&#x42E;" horiz-adv-x="867" d="M76,674l0,-674l87,0l0,310l98,0C268,113 378,-11 541,-11C701,-11 831,110 831,344C831,545 725,686 550,686C391,686 281,572 263,384l-100,0l0,290M545,59C417,59 347,191 347,334C347,479 412,616 546,616C680,616 742,475 742,340C742,187 672,59 545,59z"/>
<glyph unicode="&#x42F;" horiz-adv-x="543" d="M108,0C117,18 123,32 130,49C154,113 172,212 219,259C243,283 274,292 315,292l65,0l0,-292l87,0l0,665C423,674 363,679 306,679C221,679 155,661 113,627C75,596 51,549 51,490C51,398 116,338 200,324l0,-2C179,315 159,303 143,287C88,232 71,138 42,61C34,39 25,18 14,0M380,360C363,358 335,358 306,358C210,358 139,405 139,486C139,579 212,611 297,611C337,611 365,607 380,603z"/>
<glyph unicode="&#x430;" horiz-adv-x="482" d="M413,297C413,393 377,494 229,494C168,494 109,477 69,452l20,-59C123,416 170,429 216,429C315,430 326,357 326,318l0,-10C139,309 35,245 35,128C35,58 85,-11 183,-11C252,-11 304,23 331,61l3,0l7,-61l79,0C415,33 413,74 413,116M328,163C328,155 327,145 324,135C310,94 269,54 205,54C161,54 123,80 123,138C123,232 232,249 328,247z"/>
<glyph unicode="&#x431;" horiz-adv-x="528" d="M443,721C410,710 363,702 323,695C228,679 161,649 115,581C63,514 40,423 40,313C40,152 96,-12 266,-12C408,-12 490,87 490,245C490,399 403,484 284,484C215,484 147,446 115,375l-3,0C117,427 134,492 165,535C202,588 260,614 338,626C370,631 415,639 439,648M401,239C401,149 366,54 268,54C172,54 132,170 132,250C132,289 140,324 156,353C177,392 214,419 266,419C370,419 401,317 401,239z"/>
<glyph unicode="&#x432;" horiz-adv-x="500" d="M70,0C96,-2 153,-6 207,-6C302,-6 462,10 462,137C462,207 410,246 339,256l0,2C394,270 440,308 440,368C440,475 306,489 224,489C168,489 105,484 70,478M155,424C175,426 193,428 223,428C311,428 353,405 353,357C353,299 286,280 221,280l-66,0M154,223l64,0C301,223 372,208 372,138C372,67 284,54 224,54C197,54 179,55 154,57z"/>
<glyph unicode="&#x433;" horiz-adv-x="385" d="M71,484l0,-484l87,0l0,414l210,0l0,70z"/>
<glyph unicode="&#x434;" horiz-adv-x="530" d="M125,484l0,-126C125,290 116,225 97,165C86,130 70,97 49,66l-41,-2l4,-217l68,0l5,153l335,0l4,-153l69,0l5,218l-50,1l0,418M202,417l160,0l0,-350l-223,0C154,94 167,124 177,157C194,211 202,273 202,338z"/>
<glyph unicode="&#x435;" horiz-adv-x="501" d="M462,226C464,236 465,249 465,267C465,356 424,494 265,494C124,494 38,380 38,234C38,88 127,-11 276,-11C353,-11 407,6 438,20l-16,63C390,69 351,58 288,58C199,58 124,107 122,226M123,289C130,350 168,431 258,431C357,431 381,344 380,289z"/>
<glyph unicode="&#x436;" horiz-adv-x="667" d="M14,484l191,-220C132,256 90,213 60,135C43,90 27,39 6,0l86,0C108,30 121,68 137,110C167,189 208,214 277,214l15,0l0,-214l84,0l0,214l15,0C454,214 499,190 529,111C543,69 557,29 573,0l88,0C641,38 625,89 608,136C579,213 536,256 463,264l191,220l-101,0l-160,-211l-17,0l0,211l-84,0l0,-211l-17,0l-161,211z"/>
<glyph unicode="&#x437;" horiz-adv-x="431" d="M114,221l43,0C230,221 298,203 298,138C298,90 252,55 179,55C134,55 86,69 51,89l-23,-60C71,5 129,-10 185,-10C287,-10 394,30 394,134C394,205 334,248 262,255l0,2C316,268 371,307 371,367C371,461 281,494 207,494C151,494 95,480 46,450l22,-54C102,417 146,431 185,431C240,431 279,403 279,360C279,315 229,281 155,281l-42,0z"/>
<glyph unicode="&#x438;" horiz-adv-x="554" d="M70,484l0,-484l102,0C223,85 277,178 323,253C352,302 372,341 404,404l2,0C402,325 400,284 400,205l0,-205l84,0l0,484l-103,0l-151,-250C197,178 181,144 151,85l-3,1C152,155 154,204 154,280l0,204z"/>
<glyph unicode="&#x439;" horiz-adv-x="554" d="M70,484l0,-484l102,0C223,85 277,178 323,253C352,302 372,341 404,404l2,0C402,325 400,284 400,205l0,-205l84,0l0,484l-103,0l-151,-250C197,178 181,144 151,85l-3,1C152,155 154,204 154,280l0,204M147,681C151,613 185,557 273,557C350,557 401,600 406,681l-63,0C338,638 318,605 275,605C235,605 214,638 211,681z"/>
<glyph unicode="&#x43A;" horiz-adv-x="479" d="M73,484l0,-484l87,0l0,213l17,0C258,213 303,177 336,99C352,59 368,21 381,0l92,0C451,39 435,86 422,118C384,205 337,257 259,266l210,218l-107,0l-181,-210l-21,0l0,210z"/>
<glyph unicode="&#x43B;" horiz-adv-x="507" d="M100,484l0,-193C100,183 95,115 50,82C38,72 19,65 2,62l9,-69C56,-7 83,4 107,23C170,64 183,155 183,291l0,124l166,0l0,-415l88,0l0,484z"/>
<glyph unicode="&#x43C;" horiz-adv-x="639" d="M42,0l81,0l13,229C139,282 141,346 143,403l4,0C159,358 180,288 196,243l86,-240l63,0l93,244C465,322 479,360 492,404l3,0C497,345 501,284 503,231l11,-231l84,0l-34,484l-109,0l-77,-211C358,220 331,144 320,107l-2,0C307,145 287,204 274,240l-87,244l-108,0z"/>
<glyph unicode="&#x43D;" horiz-adv-x="546" d="M70,484l0,-484l88,0l0,219l229,0l0,-219l88,0l0,484l-88,0l0,-195l-229,0l0,195z"/>
<glyph unicode="&#x43E;" horiz-adv-x="549" d="M278,494C145,494 38,399 38,238C38,85 140,-11 270,-11C386,-11 511,67 511,246C511,393 417,494 278,494M276,428C380,428 421,325 421,243C421,134 358,55 274,55C188,55 128,135 128,241C128,332 173,428 276,428z"/>
<glyph unicode="&#x43F;" horiz-adv-x="541" d="M70,484l0,-484l88,0l0,415l225,0l0,-415l88,0l0,484z"/>
<glyph unicode="&#x440;" horiz-adv-x="569" d="M73,-198l87,0l0,263l2,0C191,17 247,-11 311,-11C425,-11 532,75 532,249C532,395 444,494 326,494C247,494 189,460 154,401l-2,0l-5,83l-78,0C71,438 73,388 73,326M160,281C160,292 163,305 166,316C182,382 239,424 299,424C392,424 443,341 443,245C443,134 389,58 296,58C233,58 180,100 164,161C161,172 160,184 160,197z"/>
<glyph unicode="&#x441;" horiz-adv-x="448" d="M403,83C378,72 345,60 295,60C199,60 127,129 127,241C127,341 187,424 298,424C346,424 379,412 400,401l20,67C396,481 350,494 298,494C140,494 38,385 38,236C38,88 133,-11 279,-11C344,-11 395,6 418,17z"/>
<glyph unicode="&#x442;" horiz-adv-x="411" d="M10,484l0,-69l151,0l0,-415l88,0l0,415l151,0l0,69z"/>
<glyph unicode="&#x443;" horiz-adv-x="471" d="M9,484l178,-446C192,27 194,20 194,15C194,10 191,3 187,-6C166,-51 137,-85 113,-104C87,-126 58,-140 36,-147l22,-73C80,-216 122,-201 166,-164C226,-111 269,-27 332,139l132,345l-93,0l-96,-284C263,165 253,128 244,99l-2,0C234,128 222,166 210,198l-105,286z"/>
<glyph unicode="&#x444;" horiz-adv-x="641" d="M280,708l1,-216C145,481 38,397 38,238C38,87 141,-1 281,-10l-1,-188l82,0l-1,189C497,0 604,84 604,243C604,393 502,482 361,493l1,215M281,51C185,63 125,141 125,240C125,340 184,420 281,432M361,432C458,419 517,343 517,243C517,144 458,64 361,50z"/>
<glyph unicode="&#x445;" horiz-adv-x="463" d="M16,484l164,-237l-172,-247l97,0l70,109C194,138 210,164 226,193l2,0C245,164 261,137 280,109l72,-109l99,0l-169,250l165,234l-96,0l-67,-103C267,355 251,330 235,302l-2,0C217,329 202,353 183,380l-69,104z"/>
<glyph unicode="&#x446;" horiz-adv-x="550" d="M70,484l0,-484l370,0l4,-153l69,0l5,218l-50,1l0,418l-87,0l0,-415l-223,0l0,415z"/>
<glyph unicode="&#x447;" horiz-adv-x="515" d="M65,484l0,-174C65,200 133,153 224,153C270,153 323,168 356,189l1,0l0,-195l87,0l0,490l-87,0l0,-233C331,232 291,218 253,218C176,218 153,259 153,321l0,163z"/>
<glyph unicode="&#x448;" horiz-adv-x="738" d="M70,484l0,-484l597,0l0,484l-87,0l0,-415l-168,0l0,415l-87,0l0,-415l-168,0l0,415z"/>
<glyph unicode="&#x449;" horiz-adv-x="749" d="M70,484l0,-484l570,0l3,-153l69,0l5,218l-50,1l0,418l-86,0l0,-415l-168,0l0,415l-87,0l0,-415l-169,0l0,415z"/>
<glyph unicode="&#x44A;" horiz-adv-x="579" d="M14,484l0,-69l143,0l0,-413C194,-2 239,-5 287,-5C358,-5 439,5 492,50C523,76 543,111 543,162C543,287 428,326 328,326C298,326 268,324 245,321l0,163M244,257C265,261 284,263 306,263C376,263 455,242 455,159C455,82 383,58 310,58C281,58 262,60 244,62z"/>
<glyph unicode="&#x44B;" horiz-adv-x="665" d="M70,484l0,-482C107,-2 152,-5 200,-5C264,-5 342,6 395,51C426,77 446,112 446,163C446,283 340,326 236,326C204,326 176,323 158,320l0,164M157,257C175,261 197,263 222,263C288,263 358,239 358,161C358,85 286,58 218,58C194,58 175,59 157,62M507,484l0,-484l87,0l0,484z"/>
<glyph unicode="&#x44C;" horiz-adv-x="498" d="M70,484l0,-482C107,-2 152,-5 200,-5C271,-5 358,6 411,51C442,77 462,112 462,162C462,291 347,326 238,326C212,326 179,324 158,321l0,163M157,257C178,261 197,263 220,263C286,263 374,244 374,160C374,80 288,58 223,58C194,58 175,59 157,62z"/>
<glyph unicode="&#x44D;" horiz-adv-x="464" d="M94,216l242,0C329,120 264,59 166,59C110,59 69,75 46,85l-18,-62C67,2 117,-10 170,-10C333,-10 426,100 426,240C426,319 402,382 360,426C317,471 255,494 185,494C133,494 78,481 36,457l19,-58C80,411 120,426 170,426C278,426 329,359 337,277l-243,0z"/>
<glyph unicode="&#x44E;" horiz-adv-x="705" d="M71,484l0,-484l86,0l0,213l81,0C248,75 332,-11 449,-11C571,-11 667,89 667,246C667,395 581,494 454,494C338,494 255,408 240,280l-83,0l0,204M451,54C365,54 322,145 322,239C322,337 367,428 452,428C538,428 579,334 579,244C579,152 539,54 451,54z"/>
<glyph unicode="&#x44F;" horiz-adv-x="496" d="M426,480C384,486 328,490 271,490C207,490 148,481 108,457C71,436 44,402 44,352C44,277 109,238 172,231l0,-2C150,224 132,214 117,201C74,165 62,102 41,55C32,34 22,16 11,0l94,0C112,12 119,25 125,40C144,87 157,146 194,175C212,193 237,203 274,203l65,0l0,-203l87,0M339,262C319,262 301,262 264,262C212,262 135,285 135,347C135,414 207,431 266,431C297,431 317,429 339,426z"/>
<glyph unicode="&#x451;" horiz-adv-x="501" d="M462,226C464,236 465,249 465,267C465,356 424,494 265,494C124,494 38,380 38,234C38,88 127,-11 276,-11C353,-11 407,6 438,20l-16,63C390,69 351,58 288,58C199,58 124,107 122,226M123,289C130,350 168,431 258,431C357,431 381,344 380,289M175,570C205,570 225,594 225,621C225,650 204,672 177,672C148,672 126,649 126,621C126,594 147,570 175,570M360,570C390,570 410,594 410,621C410,650 389,672 361,672C333,672 311,649 311,621C311,594 331,570 360,570z"/>
<glyph unicode="&#x452;" horiz-adv-x="557" d="M7,625l0,-63l82,0l0,-562l88,0l0,305C177,329 182,346 192,360C220,394 260,418 299,418C340,418 371,396 391,363C421,313 429,254 429,193C429,89 405,15 370,-25C343,-55 315,-67 277,-75l16,-68C339,-139 383,-118 418,-88C480,-36 517,64 517,199C517,279 502,354 464,410C433,460 386,489 326,489C267,489 214,459 179,420l-2,0l0,142l226,0l0,63l-226,0l0,85l-88,0l0,-85z"/>
<glyph unicode="&#x453;" horiz-adv-x="385" d="M71,484l0,-484l87,0l0,414l210,0l0,70M250,693l-88,-143l62,0l122,143z"/>
<glyph unicode="&#x454;" horiz-adv-x="460" d="M432,462C410,475 361,494 302,494C148,494 38,392 38,238C38,97 129,-11 285,-11C354,-11 408,8 432,20l-17,63C391,73 351,58 299,58C204,58 136,120 129,216l244,0l0,61l-245,0C138,359 195,426 301,426C352,426 388,410 411,399z"/>
<glyph unicode="&#x455;" horiz-adv-x="396" d="M40,23C74,3 123,-11 176,-11C289,-11 356,49 356,135C356,207 312,249 229,280C166,305 138,323 138,363C138,399 166,429 218,429C263,429 298,412 317,400l21,64C312,481 269,494 220,494C117,494 53,430 53,352C53,294 94,247 182,215C246,191 271,169 271,127C271,86 241,55 178,55C134,55 88,73 61,89z"/>
<glyph unicode="&#x456;" horiz-adv-x="234" d="M161,0l0,484l-88,0l0,-484M117,675C84,675 62,650 62,620C62,590 83,566 115,566C150,566 171,590 171,620C171,651 149,675 117,675z"/>
<glyph unicode="&#x457;" horiz-adv-x="234" d="M161,0l0,484l-88,0l0,-484M24,570C54,570 74,594 74,621C74,650 53,672 26,672C-3,672 -25,649 -25,621C-25,594 -4,570 24,570M209,570C239,570 259,594 259,621C259,650 238,672 210,672C182,672 160,649 160,621C160,594 180,570 209,570z"/>
<glyph unicode="&#x458;" horiz-adv-x="243" d="M-36,-211C11,-211 75,-195 114,-156C157,-112 172,-51 172,43l0,441l-88,0l0,-407C84,-39 74,-77 50,-104C29,-128 -5,-139 -46,-142M128,675C95,675 73,650 73,620C73,591 94,566 126,566C162,566 182,591 182,620C182,650 161,675 128,675z"/>
<glyph unicode="&#x459;" horiz-adv-x="775" d="M105,484l0,-192C105,186 96,114 50,82C38,73 19,66 2,63l8,-69C55,-6 83,5 105,24C169,65 187,155 187,292l0,123l162,0l0,-413C386,-2 433,-5 480,-5C550,-5 638,6 691,52C720,77 739,112 739,161C739,287 624,324 516,324C491,324 458,322 437,319l0,165M436,256C457,260 479,262 506,262C568,262 651,242 651,159C651,79 566,58 501,58C473,58 454,59 436,62z"/>
<glyph unicode="&#x45A;" horiz-adv-x="782" d="M70,484l0,-484l88,0l0,236l204,0l0,-235C399,-2 445,-5 493,-5C563,-5 644,4 697,50C726,75 746,110 746,160C746,280 630,320 532,320C504,320 470,318 450,315l0,169l-88,0l0,-180l-204,0l0,180M449,253C469,256 490,258 515,258C581,258 658,238 658,157C658,79 578,58 515,58C485,58 466,60 449,61z"/>
<glyph unicode="&#x45B;" horiz-adv-x="571" d="M7,625l0,-63l82,0l0,-562l88,0l0,283C177,300 179,316 183,329C199,374 242,416 301,416C384,416 413,351 413,273l0,-273l88,0l0,283C501,418 433,489 332,489C297,489 266,480 239,464C215,450 195,430 179,405l-2,0l0,157l202,0l0,63l-202,0l0,85l-88,0l0,-85z"/>
<glyph unicode="&#x45C;" horiz-adv-x="479" d="M73,484l0,-484l87,0l0,213l17,0C258,213 303,177 336,99C352,59 368,21 381,0l92,0C451,39 435,86 422,118C384,205 337,257 259,266l210,218l-107,0l-181,-210l-21,0l0,210M280,693l-87,-143l62,0l122,143z"/>
<glyph unicode="&#x45E;" horiz-adv-x="471" d="M106,681C110,613 144,557 232,557C309,557 360,600 365,681l-63,0C297,638 277,605 234,605C194,605 173,638 170,681M9,484l178,-446C192,27 194,20 194,15C194,10 191,3 187,-6C166,-51 137,-85 113,-104C87,-126 58,-140 36,-147l22,-73C80,-216 122,-201 166,-164C226,-111 269,-27 332,139l132,345l-93,0l-96,-284C263,165 253,128 244,99l-2,0C234,128 222,166 210,198l-105,286z"/>
<glyph unicode="&#x45F;" horiz-adv-x="538" d="M70,484l0,-484l158,0l7,-157l70,0l6,157l157,0l0,484l-88,0l0,-415l-222,0l0,415z"/>
<glyph unicode="&#x490;" horiz-adv-x="447" d="M76,674l0,-674l87,0l0,601l274,0l11,196l-65,0l-16,-123z"/>
<glyph unicode="&#x491;" horiz-adv-x="392" d="M71,484l0,-484l87,0l0,414l211,0l6,179l-63,0l-12,-109z"/>
<glyph unicode="&#x4D9;" horiz-adv-x="328" d="M78,400C113,414 151,425 213,425C304,425 376,376 378,257l-340,0C36,248 35,234 35,216C35,128 77,-10 235,-10C376,-10 462,104 462,249C462,395 373,494 225,494C148,494 94,476 62,462M377,194C370,133 333,53 242,53C143,53 119,139 120,194z"/>
<glyph unicode="&#x1EA0;" horiz-adv-x="612" d="M424,212l72,-212l93,0l-230,674l-104,0l-230,-674l90,0l70,212M203,280l66,195C283,516 293,557 303,597l2,0C315,558 325,518 340,474l67,-194M303,-80C275,-80 252,-103 252,-131C252,-159 273,-183 302,-183C332,-183 352,-159 352,-131C352,-103 331,-80 303,-80z"/>
<glyph unicode="&#x1EA1;" horiz-adv-x="482" d="M413,297C413,393 377,494 229,494C168,494 109,477 69,452l20,-59C123,416 170,429 216,429C315,430 326,357 326,318l0,-10C139,309 35,245 35,128C35,58 85,-11 183,-11C252,-11 304,23 331,61l3,0l7,-61l79,0C415,33 413,74 413,116M328,163C328,155 327,145 324,135C310,94 269,54 205,54C161,54 123,80 123,138C123,232 232,249 328,247M241,-80C213,-80 190,-103 190,-132C190,-159 211,-183 240,-183C270,-183 290,-159 290,-132C290,-103 269,-80 241,-80z"/>
<glyph unicode="&#x1EA2;" horiz-adv-x="612" d="M424,212l72,-212l93,0l-230,674l-104,0l-230,-674l90,0l70,212M203,280l66,195C283,516 293,558 303,597l2,0C315,558 325,518 340,474l67,-194M330,709C357,755 402,766 402,816C402,857 365,889 319,889C268,889 238,858 220,822l33,-20C265,819 282,837 303,837C322,837 336,825 336,805C336,773 300,764 284,722z"/>
<glyph unicode="&#x1EA3;" horiz-adv-x="482" d="M413,297C413,393 377,494 229,494C168,494 109,477 69,452l20,-59C123,416 170,429 216,429C315,430 326,357 326,318l0,-10C139,309 35,245 35,128C35,58 85,-11 183,-11C252,-11 304,23 331,61l3,0l7,-61l79,0C415,33 413,74 413,116M328,163C328,155 327,145 324,135C310,94 269,54 205,54C161,54 123,80 123,138C123,232 232,249 328,247M255,529C278,575 331,591 331,646C331,691 294,721 246,721C196,721 166,691 148,655l34,-21C194,652 209,669 231,669C250,669 265,656 265,636C265,599 220,585 208,541z"/>
<glyph unicode="&#x1EA4;" horiz-adv-x="612" d="M424,212l73,-212l93,0l-231,674l-104,0l-230,-674l90,0l70,212M203,280l66,195C283,516 293,558 303,597l2,0C315,558 325,518 340,474l67,-194M280,823l-92,-114l67,0l56,70l2,0l55,-70l70,0l-95,114M474,899l-84,-105l52,0l121,105z"/>
<glyph unicode="&#x1EA5;" horiz-adv-x="482" d="M413,297C413,393 377,494 229,494C168,494 109,477 69,452l20,-59C123,416 170,429 216,429C315,430 326,357 326,318l0,-10C139,309 35,245 35,128C35,58 85,-11 183,-11C252,-11 304,23 331,61l3,0l7,-61l79,0C415,33 413,74 413,116M328,163C328,155 327,145 324,135C310,94 269,54 205,54C161,54 123,80 123,138C123,232 232,249 328,247M201,693l-84,-143l64,0l51,94l2,0l51,-94l67,0l-86,143M393,774l-69,-131l51,0l99,131z"/>
<glyph unicode="&#x1EA6;" horiz-adv-x="612" d="M424,212l72,-212l93,0l-230,674l-105,0l-229,-674l90,0l70,212M203,280l66,195C282,516 293,558 302,597l3,0C315,558 325,518 340,474l67,-194M337,881l109,-105l54,0l-73,105M274,823l-92,-114l67,0l56,70l2,0l55,-70l70,0l-95,114z"/>
<glyph unicode="&#x1EA7;" horiz-adv-x="482" d="M413,297C413,393 377,494 229,494C168,494 109,477 69,452l20,-59C123,416 170,429 216,429C315,430 326,357 326,318l0,-10C139,309 35,245 35,128C35,58 85,-11 183,-11C252,-11 304,23 331,61l3,0l8,-61l79,0C415,33 413,74 413,116M328,163C328,154 327,144 324,135C310,94 269,54 205,54C161,54 123,80 123,138C123,232 232,249 328,247M272,774l93,-131l50,0l-63,131M200,693l-84,-143l64,0l51,94l2,0l51,-94l67,0l-86,143z"/>
<glyph unicode="&#x1EA8;" horiz-adv-x="612" d="M424,212l72,-212l93,0l-230,674l-104,0l-229,-674l90,0l69,212M203,280l66,195C283,516 293,557 303,597l2,0C315,558 325,518 340,474l66,-194M277,824l-93,-114l68,0l55,69l2,0l56,-69l69,0l-94,114M459,754C485,800 528,810 528,858C528,897 494,928 449,928C400,928 371,899 354,864l32,-19C397,862 414,881 435,881C454,881 469,868 469,849C469,817 433,807 417,766z"/>
<glyph unicode="&#x1EA9;" horiz-adv-x="482" d="M413,297C413,393 377,494 229,494C168,494 109,477 69,452l20,-59C123,416 170,429 216,429C315,430 326,357 326,318l0,-10C139,309 35,245 35,128C35,58 85,-11 183,-11C252,-11 304,23 331,61l3,0l7,-61l80,0C415,33 413,74 413,116M328,163C328,154 327,144 324,135C310,94 269,54 205,54C161,54 123,80 123,138C123,232 232,249 328,247M198,693l-84,-143l64,0l51,94l2,0l51,-94l67,0l-86,143M378,634C404,679 446,688 446,737C446,776 412,808 367,808C319,808 289,778 272,744l32,-20C315,741 332,760 352,760C371,760 385,746 385,728C385,696 350,687 334,646z"/>
<glyph unicode="&#x1EAA;" horiz-adv-x="612" d="M424,212l72,-212l93,0l-230,674l-104,0l-230,-674l90,0l70,212M203,280l66,195C283,516 293,558 303,597l2,0C315,558 325,518 340,474l67,-194M273,824l-102,-114l71,0l64,69l2,0l63,-69l74,0l-105,114M236,837C237,861 246,877 261,877C273,877 285,871 305,860C325,849 344,839 365,839C412,839 435,873 433,935l-46,0C385,903 375,894 359,894C347,894 333,902 317,910C294,922 277,932 255,932C213,932 186,894 187,837z"/>
<glyph unicode="&#x1EAB;" horiz-adv-x="482" d="M413,297C413,393 377,494 229,494C168,494 109,477 69,452l20,-59C123,416 170,429 216,429C315,430 326,357 326,318l0,-10C139,309 35,245 35,128C35,58 85,-11 183,-11C252,-11 304,23 331,61l3,0l7,-61l79,0C415,33 413,74 413,116M328,163C328,155 327,145 324,135C310,94 269,54 205,54C161,54 123,80 123,138C123,232 232,249 328,247M208,667l-89,-117l67,0l53,73l2,0l54,-73l69,0l-91,117M169,679C171,702 179,718 195,718C207,718 218,712 238,702C259,691 277,681 299,681C346,681 368,714 367,777l-47,0C318,745 309,736 293,736C281,736 267,744 251,752C227,764 210,774 189,774C146,774 120,736 121,679z"/>
<glyph unicode="&#x1EAC;" horiz-adv-x="612" d="M424,212l72,-212l93,0l-230,674l-104,0l-230,-674l90,0l70,212M203,280l66,195C283,516 293,558 303,597l2,0C315,558 325,518 340,474l67,-194M274,824l-102,-114l71,0l64,69l2,0l63,-69l74,0l-105,114M302,-181C330,-181 351,-157 351,-130C351,-104 330,-80 303,-80C275,-80 253,-104 253,-130C253,-157 274,-181 302,-181z"/>
<glyph unicode="&#x1EAD;" horiz-adv-x="482" d="M413,297C413,393 377,494 229,494C168,494 109,477 69,452l20,-59C123,416 170,429 216,429C315,430 326,357 326,318l0,-10C139,309 35,245 35,128C35,58 85,-11 183,-11C252,-11 304,23 331,61l3,0l7,-61l79,0C415,33 413,74 413,116M328,163C328,155 327,145 324,135C310,94 269,54 205,54C161,54 123,80 123,138C123,232 232,249 328,247M209,693l-93,-143l66,0l57,94l2,0l59,-94l67,0l-96,143M241,-80C213,-80 190,-103 190,-132C190,-159 211,-183 240,-183C270,-183 290,-159 290,-132C290,-103 269,-80 241,-80z"/>
<glyph unicode="&#x1EAE;" horiz-adv-x="612" d="M424,212l72,-212l94,0l-231,674l-104,0l-229,-674l90,0l70,212M203,280l66,195C283,517 293,558 303,597l2,0C315,558 325,518 340,474l67,-194M185,802C192,746 231,699 309,699C387,699 428,749 435,802l-47,0C380,775 361,753 310,753C261,753 240,778 233,802M348,896l-75,-105l55,0l111,105z"/>
<glyph unicode="&#x1EAF;" horiz-adv-x="482" d="M413,297C413,393 377,494 229,494C168,494 109,477 69,452l20,-59C123,416 170,429 216,429C315,430 326,357 326,318l0,-10C139,309 35,245 35,128C35,58 85,-11 183,-11C252,-11 304,23 331,61l3,0l7,-61l79,0C415,33 413,74 413,116M328,163C328,155 327,145 324,135C310,94 269,54 205,54C161,54 123,80 123,138C123,232 232,249 328,247M280,774l-80,-132l53,0l111,132M108,657C109,595 149,533 237,533C313,533 366,582 367,657l-50,0C314,623 289,588 237,588C193,588 164,618 158,657z"/>
<glyph unicode="&#x1EB0;" horiz-adv-x="612" d="M424,212l72,-212l93,0l-230,674l-105,0l-229,-674l90,0l70,212M203,280l66,195C282,517 293,558 302,597l3,0C315,558 325,518 339,474l67,-194M185,896l112,-105l55,0l-75,105M186,802C193,746 231,699 309,699C388,699 429,749 435,802l-46,0C381,775 362,753 310,753C261,753 240,778 234,802z"/>
<glyph unicode="&#x1EB1;" horiz-adv-x="482" d="M413,297C413,393 377,494 229,494C168,494 110,477 70,452l20,-59C124,416 170,429 216,429C315,430 326,357 326,318l0,-10C139,309 35,245 35,128C35,58 85,-11 183,-11C252,-11 304,23 331,61l2,0l8,-61l79,0C415,33 413,74 413,116M328,163C328,154 327,144 324,135C310,94 269,54 205,54C161,54 123,80 123,138C123,232 232,249 328,247M112,773l111,-132l54,0l-80,132M108,657C109,594 149,532 237,532C313,532 365,582 366,657l-49,0C314,623 288,588 237,588C193,588 164,618 158,657z"/>
<glyph unicode="&#x1EB2;" horiz-adv-x="612" d="M424,212l72,-212l93,0l-230,674l-104,0l-230,-674l90,0l70,212M203,280l66,195C283,516 293,558 303,597l2,0C315,558 325,518 340,474l66,-194M324,778C351,823 393,832 393,882C393,920 359,952 314,952C265,952 236,923 219,888l32,-20C262,885 278,904 299,904C318,904 332,891 332,872C332,841 297,831 281,790M186,802C193,746 232,699 310,699C388,699 429,749 435,802l-47,0C381,775 362,753 311,753C261,753 241,778 234,802z"/>
<glyph unicode="&#x1EB3;" horiz-adv-x="482" d="M413,297C413,393 377,494 229,494C168,494 110,477 70,452l20,-59C123,416 171,429 216,429C315,430 326,357 326,318l0,-10C139,309 35,245 35,128C35,58 85,-11 183,-11C252,-11 304,23 331,61l3,0l7,-61l80,0C415,33 413,74 413,116M328,163C328,154 327,144 324,135C310,94 269,54 205,54C161,54 123,80 123,138C123,232 232,249 328,247M248,634C275,679 318,688 318,737C318,776 283,808 237,808C189,808 159,778 142,744l32,-20C185,741 202,760 222,760C241,760 255,746 255,728C255,696 220,687 204,645M106,657C107,594 147,533 235,533C311,533 363,582 365,657l-50,0C312,623 286,588 235,588C191,588 162,618 156,657z"/>
<glyph unicode="&#x1EB4;" horiz-adv-x="612" d="M424,212l72,-212l93,0l-230,674l-105,0l-229,-674l90,0l70,212M203,280l66,195C282,517 293,558 303,597l2,0C315,558 325,518 340,474l66,-194M233,836C235,851 241,867 257,867C269,867 281,861 301,850C321,839 340,829 362,829C409,829 431,863 430,925l-47,0C381,893 371,884 355,884C343,884 329,892 313,901C290,913 273,922 251,922C208,922 185,885 183,836M180,802C187,746 225,699 303,699C382,699 423,749 430,802l-47,0C375,775 356,753 304,753C255,753 234,778 227,802z"/>
<glyph unicode="&#x1EB5;" horiz-adv-x="482" d="M413,297C413,393 377,494 229,494C168,494 109,477 69,452l20,-59C123,416 170,429 216,429C315,430 326,357 326,318l0,-10C139,309 35,245 35,128C35,58 85,-11 183,-11C252,-11 304,23 331,61l3,0l7,-61l79,0C415,33 413,74 413,116M328,163C328,155 327,145 324,135C310,94 269,54 205,54C161,54 123,80 123,138C123,232 232,249 328,247M168,697C170,712 177,728 193,728C205,728 216,722 236,711C257,700 275,690 297,690C344,690 366,724 365,786l-47,0C316,754 306,746 291,746C278,746 264,753 248,762C225,774 208,783 186,783C144,783 121,746 119,697M114,657C115,594 152,533 240,533C316,533 366,582 368,657l-50,0C315,623 290,586 240,586C197,586 169,618 163,657z"/>
<glyph unicode="&#x1EB6;" horiz-adv-x="612" d="M424,212l72,-212l93,0l-230,674l-104,0l-230,-674l90,0l70,212M203,280l66,195C283,516 293,558 303,597l2,0C315,558 325,518 340,474l67,-194M182,832C184,772 220,726 304,726C390,726 427,773 429,832l-51,0C373,806 354,783 306,783C257,783 239,809 234,832M304,-181C332,-181 353,-157 353,-130C353,-104 332,-80 305,-80C277,-80 255,-104 255,-130C255,-157 276,-181 304,-181z"/>
</font>
</svg>
